Фев
12

Не стучи дважды / Don't Knock Twice (2016) WEBRip | 1080p

Загружено: 12 февраля 2017 в 14:13 от Andachus
  • 80
Техническая информация
Видео: 1920x796, 4590 kbps, MPEG4, MKV, WEBRip
Аудио: 192 kbps, AC3
Перевод: Профессиональный (дублирование) [Чистый звук]
Субтитры: Английские
Звуковая дорожка: Русская
Продолжительность: 01:33
Рейтинг
 

Поиски пропавшего друга приводят Хлою в родной город. По местному преданию, в странном доме на его окраине живет опасная ведьма, охотящаяся на жителей города. Хлое придется вызвать древнего демона и ступить за порог реального мира в мир потусторонний, чтобы открыть страшную правду городской легенды.



MI
General
Unique ID : 220820678732414273677713401975633814693 (0xA6208408430DC50883DC7B0C7DCB24A5)
Complete name : G:VideoDont.Knock.Twice.2016.WEB-DL.1080p.ExKinoRay.mkv
Format : Matroska
Format version : Version 4 / Version 2
File size : 3.36 GiB
Duration : 1 h 33 min
Overall bit rate : 5 169 kb/s
Encoded date : UTC 2017-02-12 14:24:21
Writing application : mkvmerge v8.3.0 ('Over the Horizon') 64bit
Writing library : libebml v1.3.1 + libmatroska v1.4.2

Video
ID : 1
Format : AVC
Format/Info : Advanced Video Codec
Format profile : High@L4
Format settings, CABAC : Yes
Format settings, ReFrames : 5 frames
Codec ID : V_MPEG4/ISO/AVC
Duration : 1 h 33 min
Bit rate : 4 590 kb/s
Width : 1 920 pixels
Height : 796 pixels
Display aspect ratio : 2.40:1
Frame rate mode : Constant
Frame rate : 23.976 (24000/1001) FPS
Color space : YUV
Chroma subsampling : 4:2:0
Bit depth : 8 bits
Scan type : Progressive
Bits/(Pixel*Frame) : 0.125
Stream size : 2.98 GiB (89%)
Language : English
Default : Yes
Forced : No
Color range : Limited
Color primaries : BT.709
Transfer characteristics : BT.709
Matrix coefficients : BT.709

Audio #1
ID : 2
Format : AC-3
Format/Info : Audio Coding 3
Mode extension : CM (complete main)
Format settings, Endianness : Big
Codec ID : A_AC3
Duration : 1 h 33 min
Bit rate mode : Constant
Bit rate : 192 kb/s
Channel(s) : 2 channels
Channel positions : Front: L R
Sampling rate : 48.0 kHz
Frame rate : 31.250 FPS (1536 spf)
Bit depth : 16 bits
Compression mode : Lossy
Stream size : 128 MiB (4%)
Title : Line
Language : Russian
Default : Yes
Forced : No

Audio #2
ID : 3
Format : AC-3
Format/Info : Audio Coding 3
Mode extension : CM (complete main)
Format settings, Endianness : Big
Codec ID : A_AC3
Duration : 1 h 33 min
Bit rate mode : Constant
Bit rate : 384 kb/s
Channel(s) : 6 channels
Channel positions : Front: L C R, Side: L R, LFE
Sampling rate : 48.0 kHz
Frame rate : 31.250 FPS (1536 spf)
Bit depth : 16 bits
Compression mode : Lossy
Stream size : 256 MiB (7%)
Language : English
Default : No
Forced : No

Text
ID : 4
Format : UTF-8
Codec ID : S_TEXT/UTF8
Codec ID/Info : UTF-8 Plain Text
Duration : 1 h 27 min
Bit rate : 32 b/s
Count of elements : 717
Stream size : 20.6 KiB (0%)
Language : English
Default : No
Forced : No

Menu
00:00:00.000 : en:1
00:11:31.691 : en:2
00:21:14.273 : en:3
00:32:35.954 : en:4
00:43:37.615 : en:5
00:54:11.248 : en:6
01:03:14.791 : en:7
01:20:03.800 : en:8
01:31:24.480 : en:9
Дополнительная информация

Релиз группа:
Просмотров:154
Размер:3.36 ГБ (3,607,407,579 байт) » файлов: 1 [ список файлов ] [ хеш ]
Скачали:21117 раз(а) [ список скачавших ]
Участники:1169 раздают, 6 качают (1175 участников всего)
Похожие торренты:не найдены...
Рапорт:[ пожаловаться на контент ]
Благодарность: 8 [ список ]
Чтобы оставить комментарий, войдите в систему или зарегистрируйтесь!
    
Файлы обмена предоставлены пользователями трекера, администрация не несет ответственность за их содержание. Большая просьба не заливать файлы, защищенными авторскими правами, а так же файлы с нелегальным содержанием.
Рейтинг торрент трекеров