Мар
21

Вспыш и чудо-машинки 1 сезон (1-20 из 20) / Blaze and the Monster Machines (2014) SATRip

Загружено: 21 марта 2016 в 15:56 от tolyan66
  • 80
Техническая информация
Видео: 640x360, 2500 kbps, XviD, AVI, SATRip
Аудио: 256 kbps, MP3
Перевод: Профессиональный (дублирование)
Субтитры: Отсутствуют
Звуковая дорожка: Русская
Продолжительность: 20 x ~00:22
Рейтинг
 

Эй-Джей — восьмилетний любитель техники, который водит пикап по имени Вспыш, побеждающий на всех гонках в Аксель-Сити. Они вместе отправляются в приключения, требующие знания физики и математики. Их ждет множество трудностей от главного соперника Вспыша — Крушилы, грузовика, который готов пойти на всё, чтобы быть на финише первым.
Список серий:
01-2. Дорога к Славе
03. Движущая Сила
04. Схватка за Инструменты
05. Прыгающие Шины
06. Эпический Круиз
07. Трюкомания
08. Рог Джунглей
09. Командная Гонка Пикапов
10. Торто-Строфа
11. Команда для Авто-Мяча
12. Таинственный Бандит
13. Грязьети
14. Авторейнджеры
15. Хлопоты с автомойкой
16. Зег и Яйцо
17. Сбежавшая ракета
18. Прогон Скота
19. Схватка на Драконьем Острове
20.Чихательная простуда
Доп. информация по тех данным:
Серии 13,14,15,17,18,19,20 в другом качестве (лучшем чем остальные), так как брались из другого источника, чтобы собрать 1 сезон целиком в одной раздаче. Серии 17 и 20 скриншот номер 3, серии 13,14,15,18 и 19 скриншот 4, остальные серии скриншоты 1 и 2.
Mediainfo Серии 1 по 12, 16:
General
Format : AVI
Format/Info : Audio Video Interleave
File size : 421 MiB
Duration : 21mn 15s
Overall bit rate : 2 768 Kbps
Writing application : Lavf51.12.1
Video #0
ID : 0
Format : MPEG-4 Visual
Format profile : Simple@L1
Format settings, BVOP : No
Format settings, QPel : No
Format settings, GMC : No warppoints
Format settings, Matrix : Default (H.263)
Codec ID : FMP4
Duration : 21mn 15s
Bit rate : 2 500 Kbps
Width : 640 pixels
Height : 360 pixels
Display aspect ratio : 16:9
Frame rate : 25.000 fps
Color space : YUV
Chroma subsampling : 4:2:0
Bit depth : 8 bits
Scan type : Progressive
Compression mode : Lossy
Bits/(Pixel*Frame) : 0.434
Stream size : 380 MiB (90%)
Writing library : Lavc51.40.4
Audio #1
ID : 1
Format : MPEG Audio
Format version : Version 1
Format profile : Layer 3
Mode : Joint stereo
Codec ID : 55
Codec ID/Hint : MP3
Duration : 21mn 15s
Bit rate mode : Constant
Bit rate : 256 Kbps
Channel(s) : 2 channels
Sampling rate : 48.0 KHz
Compression mode : Lossy
Stream size : 38.9 MiB (9%)
Alignment : Aligned on interleaves
Interleave, duration : 24 ms (0.60 video frame)
Interleave, preload duration : 24 ms
Writing library : LAME3.97
Mediainfo Серии 13,14,15,18 и 19:
File: S01E19.Схватка на Драконьем Острове.ts
Size: 848.0 MB
Format: MPEG-2 transport stream format
Programs count: 1
Stream count: 2
Duration: 00:21:23
Bit rate: 5543 kb/s

Stream 0
Type: video
Codec: h264
Codec profile: High
FourCC: [27][0][0][0]
Duration: 00:21:23
Width: 1920
Height: 1080
Sample aspect ratio: 1:1
Display aspect ratio: 16:9
Pixel format: yuv420p
Frame rate: 25 fps

Stream 1
Type: audio
Codec: aac
FourCC: [15][0][0][0]
Duration: 00:21:23
Bit rate: 190 kb/s
Sample rate: 48000 Hz
Sample format: s16
Channel: 2
Mediainfo Серии 17 и 20:
File: S01E20.Чихательная простуда.mkv
Size: 315.2 MB
Format: Matroska/WebM file format
Stream count: 2
Duration: 00:21:59
Bit rate: 2004 kb/s
Meta info:
creation_time: 2016-01-25 12:32:30

Stream 0
Type: audio
Codec: mp3
Bit rate: 96 kb/s
Sample rate: 44100 Hz
Sample format: s16
Channel: 2
Default: YES
Meta info:
BPS: 106440
NUMBER_OF_BYTES-eng: 17551061
_STATISTICS_TAGS-eng: BPS DURATION NUMBER_OF_FRAMES NUMBER_OF_BYTES
_STATISTICS_WRITING_DATE_UTC-eng: 2016-01-25 12:32:30
_STATISTICS_WRITING_APP-eng: mkvmerge v8.5.2 ('Crosses') 64bit
BPS-eng: 106440
DURATION: 00:21:59.131000000
NUMBER_OF_FRAMES: 50486
NUMBER_OF_FRAMES-eng: 50486
_STATISTICS_WRITING_APP: mkvmerge v8.5.2 ('Crosses') 64bit
_STATISTICS_TAGS: BPS DURATION NUMBER_OF_FRAMES NUMBER_OF_BYTES
DURATION-eng: 00:21:59.131000000
_STATISTICS_WRITING_DATE_UTC: 2016-01-25 12:32:30
NUMBER_OF_BYTES: 17551061

Stream 1
Type: video
Codec: h264
Codec profile: Main
Width: 720
Height: 576
Sample aspect ratio: 12:11
Display aspect ratio: 15:11
Pixel format: yuv420p
Frame rate: 50 fps
Default: YES
Meta info:
BPS: 1894337
NUMBER_OF_BYTES-eng: 312357262
_STATISTICS_TAGS-eng: BPS DURATION NUMBER_OF_FRAMES NUMBER_OF_BYTES
_STATISTICS_WRITING_DATE_UTC-eng: 2016-01-25 12:32:30
_STATISTICS_WRITING_APP-eng: mkvmerge v8.5.2 ('Crosses') 64bit
BPS-eng: 1894337
DURATION: 00:21:59.120000000
NUMBER_OF_FRAMES: 53122
NUMBER_OF_FRAMES-eng: 53122
_STATISTICS_WRITING_APP: mkvmerge v8.5.2 ('Crosses') 64bit
_STATISTICS_TAGS: BPS DURATION NUMBER_OF_FRAMES NUMBER_OF_BYTES
DURATION-eng: 00:21:59.120000000
_STATISTICS_WRITING_DATE_UTC: 2016-01-25 12:32:30
NUMBER_OF_BYTES: 312357262
Дополнительная информация

Просмотров:604
Размер:10.22 ГБ (10,968,574,617 байт) » файлов: 19 [ список файлов ] [ хеш ]
Скачали:473 раз(а) [ список скачавших ]
Участники:214 раздают, 29 качают (243 участников всего)
Похожие торренты:не найдены...
Рапорт:[ пожаловаться на контент ]
Благодарность: 7 [ список ]
Чтобы оставить комментарий, войдите в систему или зарегистрируйтесь!
    
  • Generall
  • 25 сентября 2016 в 15:17
  • Администратор 
  • Пора чему и научится уже
    • Рейтинг:
    • Комментариев: 64
    • Загрузили: 37.19 ТБ
    • Скачали: 36.40 ГБ
    vytiokas80, есть на другом ресурсе интересует в лс пишите вкинем сколько есть потом обновим

    --------------------

    • VIP 
    • --
      • Рейтинг: 23
      • Комментариев: 1
      • Загрузили: 1.19 ТБ
      • Скачали: 51.86 ГБ
      Где можно 2 сезон скачать??
      Файлы обмена предоставлены пользователями трекера, администрация не несет ответственность за их содержание. Большая просьба не заливать файлы, защищенными авторскими правами, а так же файлы с нелегальным содержанием.
      Рейтинг торрент трекеров