Дек
18

Девушка-король / The Girl King (2015) WEBRip | 720p

Загружено: 18 декабря 2015 в 19:45 от FON45
  • 80
Техническая информация
Видео: 1280x536, 3240 kbps, MPEG4, MKV, WEBRip
Аудио: 192 kbps, MP3
Перевод: Любительский (одноголосый) [datynet]
Субтитры: Отсутствуют
Звуковая дорожка: Русская
Продолжительность: 01:46
Рейтинг
 

Фильм — биография шведской королевы Кристины (1626 — 1689). Твердый характер сочетался в ней с ненасытной жаждой знаний. Она требовала немедленного исполнения всех своих желаний и была склонна к экстравагантным поступкам, шокировавшим ее окружение. Все время на престоле она враждовала с Советом, стремившимся ограничить власть монарха. Совет желал маленькую победоносную войну, а королева решила строить в Стокгольме самую большую библиотеку в Европе. Совет требовал от нее выйти замуж, но Кристина заявляла, что не желает иметь детей. Возмущенная поведением королевы аристократия решает отстранить ее от власти…
MI
Format : Matroska
Format version : Version 2
File size : 2.78 GiB
Duration : 1h 46mn
Overall bit rate : 3 755 Kbps
Encoded date : UTC 2015-12-18 19:07:00
Writing application : mkvmerge v7.8.0 ('River Man') 32bit built on Apr 3 2015 12:11:22
Writing library : libebml v1.3.1 + libmatroska v1.4.2

Video
ID : 1
Format : AVC
Format/Info : Advanced Video Codec
Format profile : High@L4.1
Format settings, CABAC : Yes
Format settings, ReFrames : 4 frames
Codec ID : V_MPEG4/ISO/AVC
Duration : 1h 46mn
Bit rate : 3 240 Kbps
Width : 1 280 pixels
Height : 536 pixels
Display aspect ratio : 2.40:1
Frame rate mode : Constant
Frame rate : 24.000 fps
Color space : YUV
Chroma subsampling : 4:2:0
Bit depth : 8 bits
Scan type : Progressive
Bits/(Pixel*Frame) : 0.197
Stream size : 2.30 GiB (83%)
Writing library : x264 core 142 r2431+42 c69a006 tMod [8-bit@all X86_64]
Encoding settings : cabac=1 / ref=3 / deblock=1:-3:-3 / analyse=0x3:0x133 / me=umh / subme=7 / psy=1 / fade_compensate=0.00 / psy_rd=1.00:1.00 / mixed_ref=1 / me_range=48 / chroma_me=1 / trellis=2 / 8x8dct=1 / cqm=0 / deadzone=21,11 / fast_pskip=0 / chroma_qp_offset=-4 / threads=16 / lookahead_threads=2 / sliced_threads=0 / nr=0 / decimate=1 / interlaced=0 / bluray_compat=0 / constrained_intra=0 / fgo=0 / bframes=3 / b_pyramid=2 / b_adapt=2 / b_bias=0 / direct=3 / weightb=1 / open_gop=0 / weightp=2 / keyint=240 / keyint_min=24 / scenecut=40 / intra_refresh=0 / rc_lookahead=150 / rc=abr / mbtree=1 / bitrate=3240 / ratetol=1.0 / qcomp=0.60 / qpmin=0:0:0 / qpmax=69:69:69 / qpstep=4 / vbv_maxrate=62500 / vbv_bufsize=78125 / nal_hrd=none / filler=0 / ip_ratio=1.20 / aq=2:0.70 / aq-sensitivity=10.00 / aq-factor=1.00:1.00:1.00 / aq2=0 / aq3=0
Language : English
Default : Yes
Forced : No
Color range : Limited
Matrix coefficients : BT.709

Audio #1
ID : 2
Format : MPEG Audio
Format version : Version 1
Format profile : Layer 3
Codec ID : A_MPEG/L3
Codec ID/Hint : MP3
Duration : 1h 46mn
Bit rate mode : Constant
Bit rate : 192 Kbps
Channel(s) : 2 channels
Sampling rate : 44.1 KHz
Compression mode : Lossy
Stream size : 146 MiB (5%)
Language : Russian
Default : Yes
Forced : No

Audio #2
ID : 3
Format : AC-3
Format/Info : Audio Coding 3
Mode extension : CM (complete main)
Format settings, Endianness : Big
Codec ID : A_AC3
Duration : 1h 46mn
Bit rate mode : Constant
Bit rate : 384 Kbps
Channel(s) : 2 channels
Channel positions : Front: L R
Sampling rate : 48.0 KHz
Bit depth : 16 bits
Compression mode : Lossy
Stream size : 292 MiB (10%)
Language : English
Default : No
Forced : No
Дополнительная информация
Интересные факты

Релиз группа:
Просмотров:482
Размер:2.78 ГБ (2,990,137,241 байт) » файлов: 1 [ список файлов ] [ хеш ]
Скачали:323 раз(а) [ список скачавших ]
Участники:18 раздают, 3 качают (21 участников всего)
Похожие торренты:не найдены...
Рапорт:[ пожаловаться на контент ]
Благодарность: 4 [ список ]
Чтобы оставить комментарий, войдите в систему или зарегистрируйтесь!
    
Файлы обмена предоставлены пользователями трекера, администрация не несет ответственность за их содержание. Большая просьба не заливать файлы, защищенными авторскими правами, а так же файлы с нелегальным содержанием.
Рейтинг торрент трекеров