Ноя
27

Последний мент (1-15 из 15) (2015) SATRip

Загружено: 27 ноября 2015 в 07:15 от rant
  • 80
Техническая информация
Видео: 720х416, 1600 kbps, XviD, AVI, SATRip
Аудио: 192 kbps, AC3
Перевод: Не требуется
Субтитры: Отсутствуют
Звуковая дорожка: Русская
Продолжительность: 15 х ~ 00:55
Рейтинг
 

Капитан милиции Алексей Дивов (Гоша Куценко) открывает глаза на больничной койке и узнает, что полученное на задании ранение уложило его в кому... на 20 лет. С 1995-года мир изменился. Милиция стала полицией, рэкет, «крыши», «стрелки» и братки остались в прошлом, в продаже нет спирта «Рояль», вокруг сенсорные телефоны с выходом в Интернет, молодые опера борются с преступностью с помощью современных гаджетов, а в обеденный перерыв могут перекусить какими-то роллами и суши с помощью «барабанных палочек». Дочь Юля (Полина Куценко) выросла, а жена Лиза (Наталия Вдовина) замужем за другим.

Просмотров:722
Размер:8.18 ГБ (8,783,202,304 байт) » файлов: 15 [ список файлов ] [ хеш ]
Скачали:14213 раз(а) [ список скачавших ]
Участники:173 раздают, 31 качают (204 участников всего)
Похожие торренты:не найдены...
Рапорт:[ пожаловаться на контент ]
Благодарность: 9 [ список ]
Чтобы оставить комментарий, войдите в систему или зарегистрируйтесь!
    
  • Неизвестно
  • 21 ноября 2015 в 10:49
  • -- 
  • --
    • Рейтинг: ---
    • Комментариев: ---
    • Загрузили: 0.00 КБ
    • Скачали: 0.00 КБ
    Дополнительная информация
    SATRip

    10 серия медиа инфа
    Общее
    Полное имя : C:\Users\...\Downloads\Последний мент.2015.SATRip.Files-x\10.Последний мент.2015.SATRip.Files-x.avi
    Формат : AVI
    Размер файла : 548 Мбайт
    Продолжительность : 37 м.
    Общий поток : 2018 Кбит/сек
    Программа кодирования : VirtualDubMod 1.5.10.3 | www.virtualdub-fr.org || (build 2550/release)
    Библиотека кодирования : VirtualDubMod build 2550/release

    Видео
    Идентификатор : 0
    Формат : MPEG-4 Visual
    Формат/Информация : Audio Video Interleave
    Профиль формата : Advanced Simple@L5
    Параметр BVOP формата : 1
    Параметр QPel формата: Нет
    Параметр GMC формата: Без точки перехода
    Параметр матрицы формата: Выборочная
    Идентификатор кодека : XVID
    Продолжительность : 37 м.
    Битрейт : 1817 Кбит/сек
    Ширина : 720 пикселей
    Высота : 416 пикселей
    Соотношение сторон : 1,731
    Частота кадров : 25,000 кадров/сек
    Цветовое пространство : YUV
    Субдискретизация насыщенности : 4:2:0
    Битовая глубина : 8 бит
    Тип развёртки : Прогрессивная
    Бит/(Пиксели*Кадры) : 0.243
    Размер потока : 493 Мбайт (90%)
    Библиотека кодирования : XviD 73

    Аудио
    Идентификатор : 1
    Формат : AC-3
    Формат/Информация : Audio Coding 3
    Расширение режима : CM (complete main)
    Параметр Endianness формата : Big
    Идентификатор кодека : 2000
    Продолжительность : 37 м.
    Вид битрейта : Постоянный
    Битрейт : 192 Кбит/сек
    Каналы : 2 канала
    Расположение каналов : Front: L R
    Частота : 48,0 КГц
    Метод сжатия : С потерями
    Размер потока : 52,1 Мбайт (10%)
    Файлы обмена предоставлены пользователями трекера, администрация не несет ответственность за их содержание. Большая просьба не заливать файлы, защищенными авторскими правами, а так же файлы с нелегальным содержанием.
    Рейтинг торрент трекеров