Сен
07

Терминатор: Да придёт спаситель / Terminator Salvation (2009) BDRip | 720p

Загружено: 07 сентября 2015 в 18:36 от shkiper
  • 80
Техническая информация
Видео: 1280х534, 3300 kbps, H.264, MKV, BDRip
Аудио: 448 kbps, AC3
Перевод: Профессиональный (дублирование)
Субтитры: Отсутствуют
Звуковая дорожка: Русская
Продолжительность: 01:58
Рейтинг
 

2018 год. В мире наступила война с машинами. Джон Коннор — человек, чья судьба — возглавить Сопротивление электронному мозгу Скайнет и армии Терминаторов. Но в будущее, с верой в которое он возвращен, вклинивается таинственный Маркус Райт: незнакомец, чьи последние воспоминания рисуют камеру смертников.

Коннор должен понять, кто такой этот Маркус и с какой целью пожаловал к людям. И на фоне подготовки Скайнетом решающего удара, Коннор и Райт отправляются в путешествие, приводящее их в самую сердцевину взбунтовавшейся операционной системы, где открывается ужасная тайна, кроющаяся за потенциальным уничтожением человечества.
MI:
Video
ID : 1
Format : AVC
Format/Info : Advanced Video Codec
Format profile : High@L4.1
Format settings, CABAC : Yes
Format settings, ReFrames : 10 frames
Codec ID : V_MPEG4/ISO/AVC
Duration : 1h 54mn
Bit rate : 3 300 Kbps
Width : 1 280 pixels
Height : 534 pixels
Display aspect ratio : 2.40:1
Original display aspect rat : 2.40:1
Frame rate mode : Constant
Frame rate : 23.976 fps
Color space : YUV
Chroma subsampling : 4:2:0
Bit depth : 8 bits
Scan type : Progressive
Bits/(Pixel*Frame) : 0.201
Stream size : 2.58 GiB (86%)
Writing library : x264 core 146 r2538kMod 121396c
Encoding settings : cabac=1 / ref=10 / deblock=1:0:0 / analyse=0x3:0x133 / me=umh / subme=10 / psy=1 / fade_compensate=0.00 / psy_rd=1.00:0.00 / mixed_ref=1 / me_range=24 / chroma_me=1 / trellis=2 / 8x8dct=1 / cqm=0 / deadzone=21,11 / fast_pskip=0 / chroma_qp_offset=-2 / threads=5 / lookahead_threads=1 / sliced_threads=0 / nr=0 / decimate=1 / interlaced=0 / bluray_compat=0 / constrained_intra=0 / fgo=0 / bframes=8 / b_pyramid=2 / b_adapt=2 / b_bias=0 / direct=1 / weightb=1 / open_gop=0 / weightp=2 / keyint=240 / keyint_min=23 / scenecut=40 / intra_refresh=0 / rc_lookahead=40 / rc=2pass / mbtree=1 / bitrate=3300 / ratetol=1.0 / qcomp=0.60 / qpmin=0 / qpmax=69 / qpstep=4 / cplxblur=20.0 / qblur=0.5 / ip_ratio=1.40 / aq=1:1.00
Default : Yes
Forced : No

Audio
ID : 2
Format : AC-3
Format/Info : Audio Coding 3
Mode extension : CM (complete main)
Format settings, Endianness : Big
Codec ID : A_AC3
Duration : 1h 54mn
Bit rate mode : Constant
Bit rate : 448 Kbps
Channel(s) : 6 channels
Channel positions : Front: L C R, Side: L R, LFE
Sampling rate : 48.0 KHz
Compression mode : Lossy
Stream size : 368 MiB (12%)
Language : Russian
Default : Yes
Forced : No
Интересные факты

Релиз группа:
Просмотров:366
Размер:3.00 ГБ (3,223,966,033 байт) » файлов: 1 [ список файлов ] [ хеш ]
Скачали:566 раз(а) [ список скачавших ]
Участники:40 раздают, 0 качают (40 участников всего)
Похожие торренты:не найдены...
Рапорт:[ пожаловаться на контент ]
Благодарность: 5 [ список ]
Чтобы оставить комментарий, войдите в систему или зарегистрируйтесь!
    
Файлы обмена предоставлены пользователями трекера, администрация не несет ответственность за их содержание. Большая просьба не заливать файлы, защищенными авторскими правами, а так же файлы с нелегальным содержанием.
Рейтинг торрент трекеров