Сен
06

Третья попытка (2015) HDTVRip

Загружено: 06 сентября 2015 в 12:39 от shkiper
  • 80
Техническая информация
Видео: 624x352, 1010 kbps, XviD, AVI, HDTVRip
Аудио: 128 kbps, MP3
Перевод: Не требуется
Субтитры: Отсутствуют
Звуковая дорожка: Русская
Продолжительность: 01:31
Рейтинг
 

Настя и Олег пять лет вместе. Настя — медсестра, Олег — музыкант в оркестре, постоянно пропадающий на репетициях. Их семейное счастье во многом держится на Насте — нежной, заботливой жене, готовой во всём поддерживать своего любимого.
Но однажды, придя домой раньше времени, Настя застаёт мужа с любовницей. Поддавшись раскаянию Олега, Настя прощает его, но счастье уже не удаётся сохранить, и семья рушится…


MI
General
Complete name : D:Для изготовления рипаTretja.popytka.2015.HDTVRip.shkiper.avi
Format : AVI
Format/Info : Audio Video Interleave
File size : 745 MiB
Duration : 1h 30mn
Overall bit rate : 1 148 Kbps
Writing application : VirtualDubMod 1.5.10.3 | www.virtualdub-fr.org || (build 2550/release)
Writing library : VirtualDubMod build 2550/release

Video
ID : 0
Format : MPEG-4 Visual
Format profile : Advanced Simple@L5
Format settings, BVOP : 1
Format settings, QPel : No
Format settings, GMC : No warppoints
Format settings, Matrix : Custom
Codec ID : XVID
Codec ID/Hint : XviD
Duration : 1h 30mn
Bit rate : 1 011 Kbps
Width : 624 pixels
Height : 352 pixels
Display aspect ratio : 16:9
Frame rate : 25.000 fps
Color space : YUV
Chroma subsampling : 4:2:0
Bit depth : 8 bits
Scan type : Progressive
Compression mode : Lossy
Bits/(Pixel*Frame) : 0.184
Stream size : 656 MiB (88%)
Writing library : XviD 73

Audio
ID : 1
Format : MPEG Audio
Format version : Version 1
Format profile : Layer 3
Mode : Joint stereo
Mode extension : MS Stereo
Codec ID : 55
Codec ID/Hint : MP3
Duration : 1h 30mn
Bit rate mode : Constant
Bit rate : 128 Kbps
Channel(s) : 2 channels
Sampling rate : 48.0 KHz
Compression mode : Lossy
Stream size : 83.0 MiB (11%)
Alignment : Aligned on interleaves
Interleave, duration : 40 ms (1.00 video frame)
Interleave, preload duration : 504 ms
Writing library : LAME3.99r
Encoding settings : -m j -V 4 -q 2 -lowpass 17 -b 128

Релиз группа: + Собственный рип
Просмотров:228
Размер:745.03 МБ (781,217,792 байт) » файлов: 1 [ список файлов ] [ хеш ]
Скачали:156 раз(а) [ список скачавших ]
Участники:298 раздают, 11 качают (309 участников всего)
Похожие торренты:не найдены...
Рапорт:[ пожаловаться на контент ]
Благодарность: 2 [ список ]
Чтобы оставить комментарий, войдите в систему или зарегистрируйтесь!
    
Файлы обмена предоставлены пользователями трекера, администрация не несет ответственность за их содержание. Большая просьба не заливать файлы, защищенными авторскими правами, а так же файлы с нелегальным содержанием.
Рейтинг торрент трекеров