Авг
30

Неадекватные люди (2010) BDRip | 1080p

Загружено: 30 августа 2015 в 19:48 от shkiper
  • 80
Техническая информация
Видео: 1920x1080, 5445 kbps, H.264, MKV, BDRip
Аудио: 448 kbps, AC3
Перевод: Не требуется
Субтитры: Отсутствуют
Звуковая дорожка: Русская
Продолжительность: 01:42
Рейтинг
 

Тридцатилетний молодой человек Виталий, убегая от надоедливых проблем и душевного дискомфорта, бросает провинциальный городок Серпухов и переезжает в Москву, надеясь именно здесь найти гармонию с собственным «я». Но до состояния гармонии ему оказывается слишком далеко, ведь впоследствии возникает очень много вопросов, связанных с его новой соседкой Кристиной, которой также не очень везет в жизни и которая пытается «сделать» из него действительно крутого мэна, а также с начальницей, желающей затащить его в кровать. С каждым днем он все больше убеждается в неадекватности подобных людей, которые буквально сорвались с цепи. Но что, если проблема не только в них?
MI
General
Unique ID : 178513095191072640657950605149074446852 (0x864C5F1DDC1867E2BD422E73FFE15A04)
Complete name : D:\Торрент\Неадекватные люди\Neadekvatnye.Lyudi.2010.BDRip.1080p.Rus.mkv
Format : Matroska
Format version : Version 2
File size : 4.37 GiB
Duration : 1h 46mn
Overall bit rate : 5 892 Kbps
Encoded date : UTC 2011-02-20 08:26:24
Writing application : mkvmerge v4.0.0 ('The Stars were mine') сборка от Jun 6 2010 16:18:42
Writing library : libebml v1.0.0 + libmatroska v1.0.0

Video
ID : 1
Format : AVC
Format/Info : Advanced Video Codec
Format profile : High@L4.1
Format settings, CABAC : Yes
Format settings, ReFrames : 3 frames
Codec ID : V_MPEG4/ISO/AVC
Duration : 1h 46mn
Bit rate : 5 445 Kbps
Width : 1 920 pixels
Height : 1 080 pixels
Display aspect ratio : 16:9
Frame rate mode : Constant
Frame rate : 23.976 fps
Color space : YUV
Chroma subsampling : 4:2:0
Bit depth : 8 bits
Scan type : Progressive
Bits/(Pixel*Frame) : 0.110
Stream size : 3.95 GiB (90%)
Writing library : x264 core 114 r1913 5fd3dce
Encoding settings : cabac=1 / ref=4 / deblock=1:-1:-1 / analyse=0x3:0x133 / me=umh / subme=9 / psy=1 / psy_rd=1.00:0.00 / mixed_ref=1 / me_range=24 / chroma_me=1 / trellis=1 / 8x8dct=1 / cqm=0 / deadzone=21,11 / fast_pskip=0 / chroma_qp_offset=-2 / threads=12 / sliced_threads=0 / nr=0 / decimate=1 / interlaced=0 / constrained_intra=0 / bframes=3 / b_pyramid=1 / b_adapt=2 / b_bias=0 / direct=3 / weightb=1 / open_gop=0 / weightp=2 / keyint=250 / keyint_min=23 / scenecut=40 / intra_refresh=0 / rc_lookahead=60 / rc=2pass / mbtree=1 / bitrate=5445 / ratetol=1.0 / qcomp=0.60 / qpmin=0 / qpmax=69 / qpstep=4 / cplxblur=20.0 / qblur=0.5 / ip_ratio=1.40 / aq=1:1.00
Language : Russian
Default : Yes
Forced : No

Audio
ID : 2
Format : AC-3
Format/Info : Audio Coding 3
Mode extension : CM (complete main)
Format settings, Endianness : Big
Codec ID : A_AC3
Duration : 1h 46mn
Bit rate mode : Constant
Bit rate : 448 Kbps
Channel(s) : 6 channels
Channel positions : Front: L C R, Side: L R, LFE
Sampling rate : 48.0 KHz
Compression mode : Lossy
Stream size : 341 MiB (8%)
Language : Russian
Default : Yes
Forced : No

Релиз группа:
Просмотров:392
Размер:4.37 ГБ (4,695,948,618 байт) » файлов: 1 [ список файлов ] [ хеш ]
Скачали:720 раз(а) [ список скачавших ]
Участники:84 раздают, 0 качают (84 участников всего)
Похожие торренты:не найдены...
Рапорт:[ пожаловаться на контент ]
Благодарность: 3 [ список ]
Чтобы оставить комментарий, войдите в систему или зарегистрируйтесь!
    
Файлы обмена предоставлены пользователями трекера, администрация не несет ответственность за их содержание. Большая просьба не заливать файлы, защищенными авторскими правами, а так же файлы с нелегальным содержанием.
Рейтинг торрент трекеров