Авг
20

Кровная месть / Вендетта / Vendetta (2015) BDRip | 1080p

Загружено: 20 августа 2015 в 07:54 от shkiper
  • 80
Техническая информация
Видео: 1920x1080, 9500 kbps, H.264, MKV, BDRip
Аудио: 1509 kbps, DTS
Перевод: Любительский (одноголосый) [Павел Морозов]
Субтитры: Другие
Звуковая дорожка: Русская + Английская
Продолжительность: 01:30
Рейтинг
 

Мейсон — частный детектив, который в поисках возмездия переступает черту закона. Ярость, безысходность и жажда отомстить за близкого человека превращают его из полицейского в преступника. Он намеренно садится в тюрьму, чтобы добраться к убийце своей жены, который отбывает там наказание.

Но попав за решетку, он становится настоящей мишенью для заключенных, ведь многие хотят отомстить бывшему стражу порядка, который когда-то упрятал их за решетку. Мейсон оказывается в очень непростой и опасной ситуации, ведь он хочет отомстить лишь одному, в то время, как очень многие желают поквитаться с ним.

Дополнительное аудио:
Аудио 2: Русский, (AC3, 6 ch, 384 Кбит/с) (datynet)
Аудио 3: Английский, (DTS, 6 ch, 1509 Кбит/с)
MI:
Общее
Уникальный идентификатор : 185573784056282324842486747809863296932 (0x8B9C35F46A32E4EBB70B404C4981E7A4)
Полное имя : E:MMMMVendetta.2015.x264.BDRip.1080p.NovaLan.mkv
Формат : Matroska
Версия формата : Version 4 / Version 2
Размер файла : 8,12 Гбайт
Продолжительность : 1 ч. 30 м.
Общий поток : 12,9 Мбит/сек
Дата кодирования : UTC 2015-08-19 18:08:33
Программа кодирования : mkvmerge v6.9.1 ('Blue Panther') 64bit built on Apr 18 2014 18:23:38
Библиотека кодирования : libebml v1.3.0 + libmatroska v1.4.1

Видео
Идентификатор : 1
Формат : AVC
Формат/Информация : Advanced Video Codec
Профиль формата : High@L4.1
Параметр CABAC формата : Да
Параметр ReFrames формата : 4 кадра
Идентификатор кодека : V_MPEG4/ISO/AVC
Продолжительность : 1 ч. 30 м.
Битрейт : 9500 Кбит/сек
Ширина : 1920 пикселей
Высота : 1080 пикселей
Соотношение сторон : 16:9
Режим частоты кадров : Постоянный
Частота кадров : 23,976 кадра/сек
Цветовое пространство : YUV
Субдискретизация насыщенности : 4:2:0
Битовая глубина : 8 бит
Тип развёртки : Прогрессивная
Бит/(Пиксели*Кадры) : 0.191
Размер потока : 5,82 Гбайт (72%)
Библиотека кодирования : x264 core 146 r2538 121396c
Настройки программы : cabac=1 / ref=4 / deblock=1:-1:-1 / analyse=0x3:0x113 / me=umh / subme=11 / psy=1 / psy_rd=1.00:0.20 / mixed_ref=1 / me_range=32 / chroma_me=1 / trellis=2 / 8x8dct=1 / cqm=0 / deadzone=21,11 / fast_pskip=0 / chroma_qp_offset=-3 / threads=12 / lookahead_threads=1 / sliced_threads=0 / nr=0 / decimate=0 / interlaced=0 / bluray_compat=0 / constrained_intra=0 / bframes=6 / b_pyramid=2 / b_adapt=2 / b_bias=0 / direct=3 / weightb=1 / open_gop=0 / weightp=2 / keyint=240 / keyint_min=23 / scenecut=40 / intra_refresh=0 / rc_lookahead=40 / rc=2pass / mbtree=0 / bitrate=9500 / ratetol=1.0 / qcomp=0.60 / qpmin=0 / qpmax=69 / qpstep=4 / cplxblur=20.0 / qblur=0.5 / vbv_maxrate=50000 / vbv_bufsize=62500 / nal_hrd=none / filler=0 / ip_ratio=1.40 / pb_ratio=1.30 / aq=1:1.00
Default : Да
Forced : Нет

Аудио #1
Идентификатор : 2
Формат : DTS
Формат/Информация : Digital Theater Systems
Режим : 16
Параметр Endianness формата : Big
Идентификатор кодека : A_DTS
Продолжительность : 1 ч. 30 м.
Вид битрейта : Постоянный
Битрейт : 1509 Кбит/сек
Каналы : 6 каналов
Расположение каналов : Front: L C R, Side: L R, LFE
Частота : 48,0 КГц
Битовая глубина : 24 бит
Метод сжатия : С потерями
Размер потока : 973 Мбайт (12%)
Заголовок : pasha up
Язык : Russian
Default : Да
Forced : Нет

Аудио #2
Идентификатор : 3
Формат : AC-3
Формат/Информация : Audio Coding 3
Расширение режима : CM (complete main)
Параметр Endianness формата : Big
Идентификатор кодека : A_AC3
Продолжительность : 1 ч. 30 м.
Вид битрейта : Постоянный
Битрейт : 384 Кбит/сек
Каналы : 6 каналов
Расположение каналов : Front: L C R, Side: L R, LFE
Частота : 48,0 КГц
Метод сжатия : С потерями
Размер потока : 248 Мбайт (3%)
Заголовок : datynet
Язык : Russian
Default : Нет
Forced : Нет

Аудио #3
Идентификатор : 4
Формат : DTS
Формат/Информация : Digital Theater Systems
Режим : 16
Параметр Endianness формата : Big
Идентификатор кодека : A_DTS
Продолжительность : 1 ч. 30 м.
Вид битрейта : Постоянный
Битрейт : 1509 Кбит/сек
Каналы : 6 каналов
Расположение каналов : Front: L C R, Side: L R, LFE
Частота : 48,0 КГц
Битовая глубина : 24 бит
Метод сжатия : С потерями
Размер потока : 973 Мбайт (12%)
Заголовок : original
Язык : English
Default : Нет
Forced : Нет

Текст #1
Идентификатор : 5
Формат : PGS
Режим смешивания : zlib
Идентификатор кодека : S_HDMV/PGS
Идентификатор кодека/Информация : Picture based subtitle format used on BDs/HD-DVDs
Язык : English
Default : Нет
Forced : Нет

Текст #2
Идентификатор : 6
Формат : PGS
Режим смешивания : zlib
Идентификатор кодека : S_HDMV/PGS
Идентификатор кодека/Информация : Picture based subtitle format used on BDs/HD-DVDs
Язык : Spanish
Default : Нет
Forced : Нет

Меню
00:00:00.000 : en:Chapter 01
00:06:53.788 : en:Chapter 02
00:10:13.863 : en:Chapter 03
00:15:56.538 : en:Chapter 04
00:20:13.587 : en:Chapter 05
00:26:32.173 : en:Chapter 06
00:32:52.095 : en:Chapter 07
00:39:00.713 : en:Chapter 08
00:42:16.617 : en:Chapter 09
00:49:53.615 : en:Chapter 10
00:54:04.741 : en:Chapter 11
01:00:53.775 : en:Chapter 12
01:05:59.705 : en:Chapter 13
01:11:35.165 : en:Chapter 14
01:15:06.502 : en:Chapter 15
01:23:11.319 : en:Chapter 16

Релиз группа:
Просмотров:298
Размер:8.12 ГБ (8,719,245,826 байт) » файлов: 1 [ список файлов ] [ хеш ]
Скачали:92 раз(а) [ список скачавших ]
Участники:29 раздают, 0 качают (29 участников всего)
Похожие торренты:не найдены...
Рапорт:[ пожаловаться на контент ]
Благодарность: 2 [ список ]
Чтобы оставить комментарий, войдите в систему или зарегистрируйтесь!
    
Файлы обмена предоставлены пользователями трекера, администрация не несет ответственность за их содержание. Большая просьба не заливать файлы, защищенными авторскими правами, а так же файлы с нелегальным содержанием.
Рейтинг торрент трекеров