Авг
13

Франциск / Франческо / Francesco (1989) DVD5

Загружено: 13 августа 2015 в 08:29 от shkiper
  • 80
Техническая информация
Видео: 720x576, 4200 kbps, MPEG2, DVD Video, DVD5
Аудио: 192 kbps, AC3
Перевод: Профессиональный (одноголосый) [Студийный]
Субтитры: Отсутствуют
Звуковая дорожка: Русская + Английская
Продолжительность: 02:08
Рейтинг
 

Сын богатых родителей, Франциск (в итальянской интерпретации Франческо) бросил богатство и родителей и ушел в пустыню, убивать плоть и молиться…
Зачем?
MediaInfo
General
Complete name : VTS_01_1.VOB
Format : MPEG-PS
File size : 1 024 MiB
Duration : 32mn 42s
Overall bit rate mode : Variable
Overall bit rate : 4 378 Kbps
Writing library : encoded by TMPGEnc (ver. 2.521.58.169)

Video
ID : 224 (0xE0)
Format : MPEG Video
Format version : Version 2
Format profile : Main@Main
Format settings, BVOP : Yes
Format settings, Matrix : Custom
Duration : 32mn 42s
Bit rate mode : Variable
Bit rate : 3 907 Kbps
Width : 720 pixels
Height : 576 pixels
Display aspect ratio : 4:3
Frame rate : 25.000 fps
Standard : PAL
Color space : YUV
Chroma subsampling : 4:2:0
Bit depth : 8 bits
Compression mode : Lossy
Bits/(Pixel*Frame) : 0.377
Stream size : 914 MiB (89%)
Writing library : TMPGEnc 2.521.58.169

Audio #1
ID : 189 (0xBD)-128 (0x80)
Format : AC-3
Format/Info : Audio Coding 3
Mode extension : CM (complete main)
Muxing mode : DVD-Video
Duration : 32mn 41s
Bit rate mode : Constant
Bit rate : 192 Kbps
Channel(s) : 2 channels
Channel positions : Front: L R
Sampling rate : 48.0 KHz
Bit depth : 16 bits
Compression mode : Lossy
Delay relative to video : 104ms
Stream size : 44.9 MiB (4%)

Audio #2
ID : 189 (0xBD)-129 (0x81)
Format : AC-3
Format/Info : Audio Coding 3
Mode extension : CM (complete main)
Muxing mode : DVD-Video
Duration : 32mn 41s
Bit rate mode : Constant
Bit rate : 192 Kbps
Channel(s) : 2 channels
Channel positions : Front: L R
Sampling rate : 48.0 KHz
Bit depth : 16 bits
Compression mode : Lossy
Delay relative to video : 104ms
Stream size : 44.9 MiB (4%)
Дополнительная информация
Релиз группа:
Просмотров:277
Размер:4.06 ГБ (4,354,672,640 байт) » файлов: 11 [ список файлов ] [ хеш ]
Скачали:30 раз(а) [ список скачавших ]
Участники:6 раздают, 0 качают (6 участников всего)
Похожие торренты:не найдены...
Рапорт:[ пожаловаться на контент ]
Благодарность: 1 [ список ]
Чтобы оставить комментарий, войдите в систему или зарегистрируйтесь!
    
Файлы обмена предоставлены пользователями трекера, администрация не несет ответственность за их содержание. Большая просьба не заливать файлы, защищенными авторскими правами, а так же файлы с нелегальным содержанием.
Рейтинг торрент трекеров