Авг
13

Луни Тюнз: кролик в бегах / Looney Tunes: Rabbit Run (2015) WEB-DLRip

Загружено: 13 августа 2015 в 06:42 от Alexon58
  • 80
Техническая информация
Видео: 720x400, 2044 kbps, XviD, AVI, WEB-DLRip
Аудио: 192 kbps, AC3
Перевод: Профессиональный (многоголосый)
Субтитры: Отсутствуют
Звуковая дорожка: Русская + Английская
Продолжительность: 01:14
Рейтинг
 

Сюжет мультфильма начинается в центральной Мексике. В штабе петуха Фоггорна Леггорна черепаха Сесил наблюдает за объектом – редчайшим цветком флоро оккульто, который расцветает раз в 200 лет и служит величайшим в мире оружием. Леггорн собирается провести спецоперацию по захвату магического цветка, но в самый ответственный момент кто-то похищает растение…
MI
General
Complete name : D:\Торренты\Луни Тюнз кролик в бега\Lyni.Tunz.2015.P.WEBDLRip.avi
Format : AVI
Format/Info : Audio Video Interleave
File size : 1.37 GiB
Duration : 1h 14mn
Overall bit rate : 2 633 Kbps
Writing application : VirtualDubMod 1.5.10.2 (build 2540/release)
Writing library : VirtualDubMod build 2540/release

Video
ID : 0
Format : MPEG-4 Visual
Format profile : Advanced Simple@L5
Format settings, BVOP : 2
Format settings, QPel : No
Format settings, GMC : No warppoints
Format settings, Matrix : Default (MPEG)
Codec ID : XVID
Codec ID/Hint : XviD
Duration : 1h 14mn
Bit rate : 2 044 Kbps
Width : 720 pixels
Height : 400 pixels
Display aspect ratio : 16:9
Frame rate : 23.976 fps
Color space : YUV
Chroma subsampling : 4:2:0
Bit depth : 8 bits
Scan type : Progressive
Compression mode : Lossy
Bits/(Pixel*Frame) : 0.296
Stream size : 1.06 GiB (78%)
Writing library : XviD 1.2.1 (UTC 2008-12-04)

Audio #1
ID : 1
Format : AC-3
Format/Info : Audio Coding 3
Mode extension : CM (complete main)
Format settings, Endianness : Big
Codec ID : 2000
Duration : 1h 14mn
Bit rate mode : Constant
Bit rate : 192 Kbps
Channel(s) : 2 channels
Channel positions : Front: L R
Sampling rate : 48.0 KHz
Compression mode : Lossy
Stream size : 102 MiB (7%)
Alignment : Split accross interleaves
Interleave, duration : 42 ms (1.00 video frame)
Interleave, preload duratio : 500 ms

Audio #2
ID : 2
Format : AC-3
Format/Info : Audio Coding 3
Mode extension : CM (complete main)
Format settings, Endianness : Big
Codec ID : 2000
Duration : 1h 14mn
Bit rate mode : Constant
Bit rate : 384 Kbps
Channel(s) : 6 channels
Channel positions : Front: L C R, Side: L R, LFE
Sampling rate : 48.0 KHz
Compression mode : Lossy
Stream size : 204 MiB (15%)
Alignment : Split accross interleaves
Interleave, duration : 42 ms (1.00 video frame)
Interleave, preload duratio : 500 ms

Дополнительная информация
Трейлер

Релиз группа:
Просмотров:429
Размер:1.37 ГБ (1,469,917,184 байт) » файлов: 1 [ список файлов ] [ хеш ]
Скачали:6896 раз(а) [ список скачавших ]
Участники:148 раздают, 2 качают (150 участников всего)
Похожие торренты:не найдены...
Рапорт:[ пожаловаться на контент ]
Благодарность: 8 [ список ]
Чтобы оставить комментарий, войдите в систему или зарегистрируйтесь!
    
Файлы обмена предоставлены пользователями трекера, администрация не несет ответственность за их содержание. Большая просьба не заливать файлы, защищенными авторскими правами, а так же файлы с нелегальным содержанием.
Рейтинг торрент трекеров