Авг
08

Парень, ты попал / Suckers (2001) DVDRip

Загружено: 08 августа 2015 в 14:24 от shkiper
  • 80
Техническая информация
Видео: 640x480, 1108 kbps, XviD, AVI, DVDRip
Аудио: 128 kbps, MP3
Перевод: Профессиональный (двухголосый)
Субтитры: Отсутствуют
Звуковая дорожка: Русская
Продолжительность: 01:27
Рейтинг
 

У красавчика Бобби куча проблем. Двое крутых требуют, чтобы он вернул долг. Донна, жена Бобби, заставляет его устроиться в автосалон, владелец которого, Реджи, занимается контрабандой наркотиков. Теперь, крутые хотят чтобы он помог им ограбить Реджи. Но не только им пришла в голову эта идея…


MI
General
Complete name : D:ТоррентыМои рипыПарень ты попалSuckers.2001.DVDrip by shkiper.avi
Format : AVI
Format/Info : Audio Video Interleave
File size : 744 MiB
Duration : 1h 23mn
Overall bit rate : 1 246 Kbps
Writing application : VirtualDubMod 1.5.10.3 | www.virtualdub-fr.org || (build 2550/release)
Writing library : VirtualDubMod build 2550/release

Video
ID : 0
Format : MPEG-4 Visual
Format profile : Advanced Simple@L5
Format settings, BVOP : 1
Format settings, QPel : No
Format settings, GMC : No warppoints
Format settings, Matrix : Custom
Codec ID : XVID
Codec ID/Hint : XviD
Duration : 1h 23mn
Bit rate : 1 109 Kbps
Width : 640 pixels
Height : 480 pixels
Display aspect ratio : 4:3
Frame rate : 25.000 fps
Color space : YUV
Chroma subsampling : 4:2:0
Bit depth : 8 bits
Scan type : Progressive
Compression mode : Lossy
Bits/(Pixel*Frame) : 0.144
Stream size : 662 MiB (89%)
Writing library : XviD 73

Audio
ID : 1
Format : MPEG Audio
Format version : Version 1
Format profile : Layer 3
Mode : Joint stereo
Mode extension : MS Stereo
Codec ID : 55
Codec ID/Hint : MP3
Duration : 1h 23mn
Bit rate mode : Constant
Bit rate : 128 Kbps
Channel(s) : 2 channels
Sampling rate : 48.0 KHz
Compression mode : Lossy
Stream size : 76.5 MiB (10%)
Alignment : Aligned on interleaves
Interleave, duration : 40 ms (1.00 video frame)
Interleave, preload duratio : 504 ms
Writing library : LAME3.99r
Encoding settings : -m j -V 4 -q 2 -lowpass 17 -b 128

Релиз группа: + Собственный рип
Просмотров:254
Размер:744.49 МБ (780,658,688 байт) » файлов: 1 [ список файлов ] [ хеш ]
Скачали:170 раз(а) [ список скачавших ]
Участники:15 раздают, 0 качают (15 участников всего)
Похожие торренты:не найдены...
Рапорт:[ пожаловаться на контент ]
Благодарность: 0 еще никто не сказал спасибо
Чтобы оставить комментарий, войдите в систему или зарегистрируйтесь!
    
Файлы обмена предоставлены пользователями трекера, администрация не несет ответственность за их содержание. Большая просьба не заливать файлы, защищенными авторскими правами, а так же файлы с нелегальным содержанием.
Рейтинг торрент трекеров