Авг
07

Ласковый май (2009) BDRip | 1080p

Загружено: 07 августа 2015 в 16:36 от shkiper
  • 80
Техническая информация
Видео: 1920х1080, 14444 kbps, H.264, MKV, BDRip
Аудио: 640 kbps, AC3
Перевод: Не требуется
Субтитры: Отсутствуют
Звуковая дорожка: Русская
Продолжительность: 01:55
Рейтинг
 

В 1985 году в Советском Союзе началась перестройка и появилась группа «Ласковый май». На их концертах были только аншлаги, от неразделенной любви к ним совершались самоубийства. Фигура Михаила Горбачева меркла в лучах славы создателя «Ласкового мая» — Андрея Разина. Случайно сделанная фотография на пляже, где Андрей Разин, будучи ребенком, запечатлен с семьей Горбачевых, перевернула его судьбу. Именно с помощью этой фотографии он стал племянником Горбачева.

Он заявил об этом не впрямую — так, намекнул, и ему мгновенно поверили. Функционеры всех рангов действовали без промедления: перед ним распахнулись двери телевидения и радио, советская эстрада легла к его ногам. Разин ездил по всем детским домам Советского Союза в поисках одаренных детей для своих групп-двойников. «Ласковый май» гастролировал одновременно в нескольких городах, давая в день по 5-6 концертов. За все десять лет существования группы не было ни одного не проданного или сданного билета, каждый пятый житель СССР побывал на их концертах.

Прошло время, ушел Горбачев, развалился Советский Союз, закончилась эпоха «Ласкового мая», но до сих пор, под современные аранжировки их песен, зажигают на дискотеках современные тинэйджеры.
MI
Общее
Уникальный идентификатор : 253386000184167366310928627489043943115 (0xBEA05E579C1D2532886226E7BFF88ECB)
Полное имя : D:ЗагрузкиLaskovij.Maj.2009.x264.BDRip.(1080p).ExKinoRay.mkv
Формат : Matroska
Версия формата : Version 2
Размер файла : 13,3 Гбайт
Продолжительность : 1 ч. 54 м.
Общий поток : 16,6 Мбит/сек
Название фильма : Ласковый Май.2009.Rip by: ollan
Дата кодирования : UTC 2014-12-27 11:43:42
Программа кодирования : mkvmerge v5.6.0 ('Kenya Kane') built on May 27 2012 16:44:04
Библиотека кодирования : libebml v1.2.3 + libmatroska v1.3.0

Видео
Идентификатор : 1
Формат : AVC
Формат/Информация : Advanced Video Codec
Профиль формата : High@L4.1
Параметр CABAC формата : Да
Параметр ReFrames формата : 4 кадра
Идентификатор кодека : V_MPEG4/ISO/AVC
Продолжительность : 1 ч. 54 м.
Битрейт : 14,4 Мбит/сек
Ширина : 1920 пикселей
Высота : 1080 пикселей
Соотношение сторон : 16:9
Режим частоты кадров : Постоянный
Частота кадров : 24,000 кадра/сек
Цветовое пространство : YUV
Субдискретизация насыщенности : 4:2:0
Битовая глубина : 8 бит
Тип развёртки : Прогрессивная
Бит/(Пиксели*Кадры) : 0.290
Размер потока : 11,3 Гбайт (85%)
Библиотека кодирования : x264 core 125 r2200 999b753
Настройки программы : cabac=1 / ref=4 / deblock=1:-3:-3 / analyse=0x3:0x133 / me=umh / subme=11 / psy=1 / psy_rd=1.00:0.10 / mixed_ref=1 / me_range=32 / chroma_me=1 / trellis=2 / 8x8dct=1 / cqm=0 / deadzone=21,11 / fast_pskip=0 / chroma_qp_offset=-3 / threads=12 / lookahead_threads=2 / sliced_threads=0 / nr=0 / decimate=0 / interlaced=0 / bluray_compat=0 / constrained_intra=0 / bframes=9 / b_pyramid=2 / b_adapt=2 / b_bias=0 / direct=3 / weightb=1 / open_gop=0 / weightp=2 / keyint=240 / keyint_min=23 / scenecut=40 / intra_refresh=0 / rc=2pass / mbtree=0 / bitrate=14444 / ratetol=1.0 / qcomp=0.60 / qpmin=0 / qpmax=69 / qpstep=4 / cplxblur=20.0 / qblur=0.5 / ip_ratio=1.40 / pb_ratio=1.30 / aq=1:1.00
Язык : Russian
Default : Да
Forced : Нет

Аудио #1
Идентификатор : 2
Формат : AC-3
Формат/Информация : Audio Coding 3
Расширение режима : CM (complete main)
Параметр Endianness формата : Big
Идентификатор кодека : A_AC3
Продолжительность : 1 ч. 54 м.
Вид битрейта : Постоянный
Битрейт : 640 Кбит/сек
Каналы : 6 каналов
Расположение каналов : Front: L C R, Side: L R, LFE
Частота : 48,0 КГц
Битовая глубина : 16 бит
Метод сжатия : С потерями
Размер потока : 526 Мбайт (4%)
Язык : Russian
Default : Да
Forced : Нет

Аудио #2
Идентификатор : 3
Формат : DTS
Формат/Информация : Digital Theater Systems
Режим : 16
Параметр Endianness формата : Big
Идентификатор кодека : A_DTS
Продолжительность : 1 ч. 54 м.
Вид битрейта : Постоянный
Битрейт : 1510 Кбит/сек
Каналы : 6 каналов
Расположение каналов : Front: L C R, Side: L R, LFE
Частота : 48,0 КГц
Битовая глубина : 24 бит
Метод сжатия : С потерями
Размер потока : 1,21 Гбайт (9%)
Язык : Russian
Default : Нет
Forced : Нет

Меню
00:00:00.000 : ru:Chapter 01
00:07:32.416 : ru:Chapter 02
00:11:33.583 : ru:Chapter 03
00:16:22.291 : ru:Chapter 04
00:23:55.291 : ru:Chapter 05
00:27:18.458 : ru:Chapter 06
00:31:06.166 : ru:Chapter 07
00:35:16.791 : ru:Chapter 08
00:47:42.250 : ru:Chapter 09
00:55:54.333 : ru:Chapter 10
01:03:14.583 : ru:Chapter 11
01:13:41.041 : ru:Chapter 12
01:16:02.416 : ru:Chapter 13
01:22:46.041 : ru:Chapter 14
01:32:30.875 : ru:Chapter 15
01:35:53.416 : ru:Chapter 16
01:44:35.208 : ru:Chapter 17
01:52:44.875 : ru:Chapter 18
01:54:48.166 : ru:Chapter 19
Интересные факты

Релиз группа:
Просмотров:333
Размер:13.31 ГБ (14,286,959,994 байт) » файлов: 1 [ список файлов ] [ хеш ]
Скачали:4 раз(а) [ список скачавших ]
Участники:? раздают, 3 качают (3 участников всего)
Похожие торренты:не найдены...
Рапорт:[ пожаловаться на контент ]
Благодарность: 1 [ список ]
Чтобы оставить комментарий, войдите в систему или зарегистрируйтесь!
    
Файлы обмена предоставлены пользователями трекера, администрация не несет ответственность за их содержание. Большая просьба не заливать файлы, защищенными авторскими правами, а так же файлы с нелегальным содержанием.
Рейтинг торрент трекеров