Июл
25

Три орешка для Золушки / Tri orisky pro Popelku / Three Wishes for Cinderella (1973) BDRip | 720p

Загружено: 25 июля 2015 в 12:38 от shkiper
  • 80
Техническая информация
Видео: 1280x720, 7211 kbps, H.264, MKV, BDRip
Аудио: 192 kbps, AC3
Перевод: Профессиональный (многоголосый)
Субтитры: Русские + Английские
Звуковая дорожка: Русская
Продолжительность: 01:22
Рейтинг
 

Мачеха Золушки всеми силами хочет выдать свою глупую и злую родную дочь замуж за принца. Но тому совсем не хочется жениться, он ссорится с отцом и собирается покинуть дворец, но… в последний момент он влюбляется в очаровательную незнакомку в маске, которая быстро исчезает. Принц и не догадывается, что эта прекрасная девушка, ловкий стрелок, которого он встретил в лесу и озорная девчонка — одно и то же лицо. Все эти превращения оказались возможными благодаря волшебным орешкам, в одном из которых находился и свадебный подарок для Золушки.
MediaInfo
General
Complete name : Tri.Oreshka.Dlya.Zolushki.1973.RUS.BDRip.720p.h264.AC3.-HQ-ViDEO.mkv
Format : Matroska
File size : 4.37 GiB
Duration : 1h 22mn
Overall bit rate : 7 553 Kbps
Movie name : Tri orísky pro Popelku / Three Wishes for Cinderella (1973)
Encoded date : UTC 2010-12-30 12:50:46
Writing application : mkvmerge v3.3.0 ('Language') built on Mar 24 2010 14:59:24
Writing library : libebml v0.8.0 + libmatroska v0.9.0

Video
ID : 1
Format : AVC
Format/Info : Advanced Video Codec
Format profile : High@L4.1
Format settings, CABAC : Yes
Format settings, ReFrames : 6 frames
Muxing mode : Container profile=Unknown@4.1
Codec ID : V_MPEG4/ISO/AVC
Duration : 1h 22mn
Bit rate : 7 211 Kbps
Width : 1 280 pixels
Height : 720 pixels
Display aspect ratio : 16:9
Frame rate : 25.000 fps
Resolution : 8 bits
Colorimetry : 4:2:0
Scan type : Progressive
Bits/(Pixel*Frame) : 0.313
Stream size : 4.18 GiB (95%)
Title : Encoded by GYN

Audio
ID : 2
Format : AC-3
Format/Info : Audio Coding 3
Format profile : Dolby Digital
Codec ID : A_AC3
Duration : 1h 22mn
Bit rate mode : Constant
Bit rate : 192 Kbps
Channel(s) : 2 channels
Channel positions : L R
Sampling rate : 48.0 KHz
Stream size : 114 MiB (3%)
Title : MVO
Language : Russian

Text #1
ID : 3
Format : UTF-8
Codec ID : S_TEXT/UTF8
Codec ID/Info : UTF-8 Plain Text
Language : Russian

Text #2
ID : 4
Format : UTF-8
Codec ID : S_TEXT/UTF8
Codec ID/Info : UTF-8 Plain Text
Language : English
Интересные факты

Релиз группа:
Просмотров:345
Размер:4.37 ГБ (4,696,047,208 байт) » файлов: 1 [ список файлов ] [ хеш ]
Скачали:504 раз(а) [ список скачавших ]
Участники:41 раздают, 0 качают (41 участников всего)
Похожие торренты:не найдены...
Рапорт:[ пожаловаться на контент ]
Благодарность: 4 [ список ]
Чтобы оставить комментарий, войдите в систему или зарегистрируйтесь!
    
Файлы обмена предоставлены пользователями трекера, администрация не несет ответственность за их содержание. Большая просьба не заливать файлы, защищенными авторскими правами, а так же файлы с нелегальным содержанием.
Рейтинг торрент трекеров