Июл
21

Притчи 4 (2013) DVDRip

Загружено: 21 июля 2015 в 10:52 от shkiper
  • 80
Техническая информация
Видео: 624x352, 1262 kbps, XviD, AVI, DVDRip
Аудио: 128 kbps, MP3
Перевод: Не требуется
Субтитры: Отсутствуют
Звуковая дорожка: Русская
Продолжительность: 01:14
Рейтинг
 

Помните ли вы героев прежних «Притч» — мудрого духовника и его непутевого послушника? Жизнь не стоит на месте — в монастыре, где они Богу служат, новые корпуса растут, а монахи и прихожане в трудах да молитвах духом возрастают, друг друга немощи носить научаются.

Первая притча «Лествица» про молодого и амбициозного бизнесмена. Трудно богатому войти в Царство Божие… Вот и Сергей Сергеич хоть уверовал в Бога, да уж слишком на себя понадеялся. Тут и ревность не по разуму, и поспешность в подвигах духовных, и фантазии нелепые. Так что есть чему улыбнуться и над чем задуматься…

Вторая история про послушника. Одолели бедного злые мысли и осуждение. Пока исповедовался, душа, как чистый родничок была, а как про силу исповеди запамятовал — словно смрадное болото стала. Таких дров наломал…

Слава Богу, духовник рядом — он и помолится, и слово доброе скажет, и епитимью вовремя наложит. Исправился наш герой и даже умудрился двух крепко обиженных друг на друга людей помирить. Потому третья притча «Мудрый послушник» называется.

MI
Общее
Полное имя : D:\Торрент\МОИ РИПЫ\Притчи 4\Pritchi 4. dvdrip by shkiper.avi
Формат : AVI
Формат/Информация : Audio Video Interleave
Размер файла : 744 Мбайт
Продолжительность : 1 ч. 14 м.
Общий поток : 1401 Кбит/сек
Программа кодирования : VirtualDubMod 1.5.10.3 | www.virtualdub-fr.org || (build 2550/release)
Библиотека кодирования : VirtualDubMod build 2550/release

Видео
Идентификатор : 0
Формат : MPEG-4 Visual
Профиль формата : Advanced Simple@L5
Параметр BVOP формата : 1
Параметр QPel формата : Нет
Параметр GMC формата : Без точки перехода
Параметр матрицы формата : Выборочная
Идентификатор кодека : XVID
Идентификатор кодека/Подсказка : XviD
Продолжительность : 1 ч. 14 м.
Битрейт : 1263 Кбит/сек
Ширина : 624 пикселя
Высота : 352 пикселя
Соотношение сторон : 16:9
Частота кадров : 25,000 кадров/сек
Цветовое пространство : YUV
Субдискретизация насыщенности : 4:2:0
Битовая глубина : 8 бит
Тип развёртки : Прогрессивная
Метод сжатия : С потерями
Бит/(Пиксели*Кадры) : 0.230
Размер потока : 671 Мбайт (90%)
Библиотека кодирования : XviD 73

Аудио
Идентификатор : 1
Формат : MPEG Audio
Версия формата : Version 1
Профиль формата : Layer 3
Режим : Joint stereo
Расширение режима : MS Stereo
Идентификатор кодека : 55
Идентификатор кодека/Подсказка : MP3
Продолжительность : 1 ч. 14 м.
Вид битрейта : Постоянный
Битрейт : 128 Кбит/сек
Каналы : 2 канала
Частота : 48,0 КГц
Метод сжатия : С потерями
Размер потока : 68,0 Мбайт (9%)
Выравнивание : Соединение по промежуткам
Продолжительность промежутка : 40 мс. (1,00 видеокадр)
Время предзагрузки промежутка : 504 мс.
Библиотека кодирования : LAME3.99r
Настройки программы : -m j -V 4 -q 2 -lowpass 17 -b 128

Релиз группа: + Собственный рип
Просмотров:398
Размер:744.05 МБ (780,197,888 байт) » файлов: 1 [ список файлов ] [ хеш ]
Скачали:471 раз(а) [ список скачавших ]
Участники:12 раздают, 0 качают (12 участников всего)
Похожие торренты:не найдены...
Рапорт:[ пожаловаться на контент ]
Благодарность: 3 [ список ]
Чтобы оставить комментарий, войдите в систему или зарегистрируйтесь!
    
Файлы обмена предоставлены пользователями трекера, администрация не несет ответственность за их содержание. Большая просьба не заливать файлы, защищенными авторскими правами, а так же файлы с нелегальным содержанием.
Рейтинг торрент трекеров