Июл
18

Поход в Припять. Урбан туризм. (2013) CAMRip | 720p

Загружено: 18 июля 2015 в 20:08 от shkiper
  • 80
Режиссер: Андрей
Техническая информация
Видео: 1280x720, 2181 kbps, AVC, MP4, CAMRip
Аудио: 144 kbps, AAC
Перевод: Не требуется
Субтитры: Отсутствуют
Звуковая дорожка: Русская
Продолжительность: 4:07

55 километров. Таков наш путь от машины до Припяти. Под угрозой напороться на охрану, пограничников, диких животных и радиоактивные бяки. И посещение Припяти.
MI
Формат : MPEG-4
Профиль формата : Base Media
Идентификатор кодека : isom
Размер файла : 529 Мбайт
Продолжительность : 31 м.
Общий поток : 2332 Кбит/сек
Программа кодирования : Lavf55.12.100

Видео
Идентификатор : 2
Формат : AVC
Формат/Информация : Advanced Video Codec
Профиль формата : High@L3.1
Параметр CABAC формата : Да
Параметр ReFrames формата : 1 кадр
Параметр GOP формата : M=1, N=60
Идентификатор кодека : avc1
Идентификатор кодека/Информация : Advanced Video Coding
Продолжительность : 31 м.
Битрейт : 2181 Кбит/сек
Ширина : 1280 пикселей
Высота : 720 пикселей
Соотношение сторон : 16:9
Режим частоты кадров : Постоянный
Частота кадров : 30,000 кадров/сек
Цветовое пространство : YUV
Субдискретизация насыщенности : 4:2:0
Битовая глубина : 8 бит
Тип развёртки : Прогрессивная
Бит/(Пиксели*Кадры) : 0.079
Размер потока : 495 Мбайт (94%)

Аудио
Идентификатор : 1
Формат : AAC
Формат/Информация : Advanced Audio Codec
Профиль формата : LC
Идентификатор кодека : 40
Продолжительность : 31 м.
Вид битрейта : Постоянный
Битрейт : 144 Кбит/сек
Каналы : 2 канала
Channel(s)_Original : 1 канал
Расположение каналов : Front: C
Частота : 44,1 КГц
Метод сжатия : С потерями
Размер потока : 32,7 Мбайт (6%)
Дополнительная информация

Релиз группа:
Просмотров:539
Размер:4.29 ГБ (4,608,222,706 байт) » файлов: 8 [ список файлов ] [ хеш ]
Скачали:125 раз(а) [ список скачавших ]
Участники:8 раздают, 3 качают (11 участников всего)
Похожие торренты:не найдены...
Рапорт:[ пожаловаться на контент ]
Благодарность: 7 [ список ]
Чтобы оставить комментарий, войдите в систему или зарегистрируйтесь!
    
  • TyTN
  • 18 июля 2015 в 21:16
  • VIP 
  • Постоялец
    • Рейтинг: 4
    • Комментариев: 16
    • Загрузили: 15.82 ТБ
    • Скачали: 3.80 ТБ
    смотрел на ютубе, качать стоит однозначно. МШ рулит, без спойлеров, но радиация в ЧЗО пугает
    Файлы обмена предоставлены пользователями трекера, администрация не несет ответственность за их содержание. Большая просьба не заливать файлы, защищенными авторскими правами, а так же файлы с нелегальным содержанием.
    Рейтинг торрент трекеров