Июл
16

Русский характер (2014) HDTVRip

Загружено: 16 июля 2015 в 15:39 от shkiper
  • 80
Техническая информация
Видео: 624x352, 1049 kbps, XviD, AVI, HDTVRip
Аудио: 128 kbps, MP3
Перевод: Не требуется
Субтитры: Русские
Звуковая дорожка: Русская
Продолжительность: 01:27
Рейтинг
 

2013 год, Украина. Военный моряк Максим Фадеев приезжает из Санкт-Петербурга в Крым, получив телеграмму о смерти деда. На полуострове прошло детство Максима, отсюда он уехал поступать в Суворовское училище, здесь живут его друзья и близкие… Максим узнает, что расположенный на берегу моря поселок терроризирует банда некоего Волощука, которого финансирует олигарх Юрий Гаджало. Цель — выжить из поселка местных жителей, снести все и построить на этом месте дорогой отель с ресторанами и причалом для катеров. Фадеев встает на защиту жителей поселка, что приводит к конфликту с милицией, закрывающей глаза на бесчинства бандитов и даже покрывающей их. Вскоре местные жители, которые были запуганы и не сопротивлялись беззаконию, начинают помогать Фадееву в его борьбе с бандой.

Субтитры: На Украинскую речь


MI
General
Complete name : D:Изготовление рипаRusskiy.harakter.2014.HDTVRip.by shkiper.avi
Format : AVI
Format/Info : Audio Video Interleave
File size : 745 MiB
Duration : 1h 27mn
Overall bit rate : 1 188 Kbps
Writing application : VirtualDubMod 1.5.10.3 | www.virtualdub-fr.org || (build 2550/release)
Writing library : VirtualDubMod build 2550/release

Video
ID : 0
Format : MPEG-4 Visual
Format profile : Advanced Simple@L5
Format settings, BVOP : 1
Format settings, QPel : No
Format settings, GMC : No warppoints
Format settings, Matrix : Custom
Codec ID : XVID
Codec ID/Hint : XviD
Duration : 1h 27mn
Bit rate : 1 050 Kbps
Width : 624 pixels
Height : 352 pixels
Display aspect ratio : 16:9
Frame rate : 25.000 fps
Color space : YUV
Chroma subsampling : 4:2:0
Bit depth : 8 bits
Scan type : Progressive
Compression mode : Lossy
Bits/(Pixel*Frame) : 0.191
Stream size : 659 MiB (88%)
Writing library : XviD 73

Audio
ID : 1
Format : MPEG Audio
Format version : Version 1
Format profile : Layer 3
Mode : Joint stereo
Mode extension : MS Stereo
Codec ID : 55
Codec ID/Hint : MP3
Duration : 1h 27mn
Bit rate mode : Constant
Bit rate : 128 Kbps
Channel(s) : 2 channels
Sampling rate : 48.0 KHz
Compression mode : Lossy
Stream size : 80.3 MiB (11%)
Alignment : Aligned on interleaves
Interleave, duration : 40 ms (1.00 video frame)
Interleave, preload duration : 504 ms
Writing library : LAME3.99r
Encoding settings : -m j -V 4 -q 2 -lowpass 17 -b 128

Релиз группа: + Собственный рип
Просмотров:286
Размер:744.89 МБ (781,074,432 байт) » файлов: 1 [ список файлов ] [ хеш ]
Скачали:215 раз(а) [ список скачавших ]
Участники:25 раздают, 0 качают (25 участников всего)
Похожие торренты:не найдены...
Рапорт:[ пожаловаться на контент ]
Благодарность: 3 [ список ]
Чтобы оставить комментарий, войдите в систему или зарегистрируйтесь!
    
Файлы обмена предоставлены пользователями трекера, администрация не несет ответственность за их содержание. Большая просьба не заливать файлы, защищенными авторскими правами, а так же файлы с нелегальным содержанием.
Рейтинг торрент трекеров