Июл
09

Заключенный R / R (2009) HDRip

Загружено: 09 июля 2015 в 14:31 от shkiper
  • 80
Техническая информация
Видео: 624x352, 950 kbps, XviD, AVI, HDRip
Аудио: 128 kbps, MP3
Перевод: Профессиональный (многоголосый)
Субтитры: Отсутствуют
Звуковая дорожка: Русская
Продолжительность: 01:36
Рейтинг
 

В тюрьму, известную на всю Данию своими жесткими условиями содержания, прибывает заключенный по имени Р. Здесь он будет отбывать срок за насилие. Тюрьма — это параллельный мир, со своими правилами, понятиями о чести и обязанностями. Тут на окнах — решетки, а пол залит кровью. Р помещают в отсек к самым агрессивным зекам. Здесь ему предстоит найти свое место, научиться перемещаться и бороться за выживание.

Рип от:
MI
General
Complete name : D:ТоррентМОИ РИПЫЗаключенный РZakliuchonnii R (2010) HDRip-by shkiper.avi
Format : AVI
Format/Info : Audio Video Interleave
File size : 745 MiB
Duration : 1h 35mn
Overall bit rate : 1 088 Kbps
Writing application : VirtualDubMod 1.5.10.3 | www.virtualdub-fr.org || (build 2550/release)
Writing library : VirtualDubMod build 2550/release

Video
ID : 0
Format : MPEG-4 Visual
Format profile : Advanced Simple@L5
Format settings, BVOP : 1
Format settings, QPel : No
Format settings, GMC : No warppoints
Format settings, Matrix : Default (MPEG)
Codec ID : XVID
Codec ID/Hint : XviD
Duration : 1h 35mn
Bit rate : 950 Kbps
Width : 624 pixels
Height : 352 pixels
Display aspect ratio : 16:9
Frame rate : 25.000 fps
Color space : YUV
Chroma subsampling : 4:2:0
Bit depth : 8 bits
Scan type : Progressive
Compression mode : Lossy
Bits/(Pixel*Frame) : 0.173
Stream size : 651 MiB (87%)
Writing library : XviD 73

Audio
ID : 1
Format : MPEG Audio
Format version : Version 1
Format profile : Layer 3
Mode : Joint stereo
Mode extension : MS Stereo
Codec ID : 55
Codec ID/Hint : MP3
Duration : 1h 35mn
Bit rate mode : Constant
Bit rate : 128 Kbps
Channel(s) : 2 channels
Sampling rate : 48.0 KHz
Compression mode : Lossy
Stream size : 87.6 MiB (12%)
Alignment : Aligned on interleaves
Interleave, duration : 40 ms (1.00 video frame)
Interleave, preload duration : 504 ms
Writing library : LAME3.99r
Encoding settings : -m j -V 4 -q 2 -lowpass 17 -b 128
Дополнительная информация

Релиз группа:
Просмотров:239
Размер:745.13 МБ (781,326,336 байт) » файлов: 1 [ список файлов ] [ хеш ]
Скачали:32 раз(а) [ список скачавших ]
Участники:13 раздают, 0 качают (13 участников всего)
Похожие торренты:не найдены...
Рапорт:[ пожаловаться на контент ]
Благодарность: 3 [ список ]
Чтобы оставить комментарий, войдите в систему или зарегистрируйтесь!
    
Файлы обмена предоставлены пользователями трекера, администрация не несет ответственность за их содержание. Большая просьба не заливать файлы, защищенными авторскими правами, а так же файлы с нелегальным содержанием.
Рейтинг торрент трекеров