Июл
08

Заключенный R / R (2009) BDRip | 720p

Загружено: 08 июля 2015 в 07:12 от shkiper
  • 80
Техническая информация
Видео: 1280x720, 5615 kbps, H.264, MKV, BDRip
Аудио: 448 kbps, AC3
Перевод: Профессиональный (многоголосый)
Субтитры: Русские + Другие
Звуковая дорожка: Русская + Другая
Продолжительность: 01:36
Рейтинг
 

В тюрьму, известную на всю Данию своими жесткими условиями содержания, прибывает заключенный по имени Р. Здесь он будет отбывать срок за насилие. Тюрьма — это параллельный мир, со своими правилами, понятиями о чести и обязанностями. Тут на окнах — решетки, а пол залит кровью. Р помещают в отсек к самым агрессивным зекам. Здесь ему предстоит найти свое место, научиться перемещаться и бороться за выживание.
Доп.аудио
Аудио#2: German: 48 kHz, AC3, 3/2 (L,C,R,l,r) + LFE ch, ~448.00 kbps avg
Аудио#3: Danish: 48 kHz, AC3, 3/2 (L,C,R,l,r) + LFE ch, ~448.00 kbps avg
Субтитры: Russian, Danish, German, English
Главы: [+] as in Blu-Ray
MI
General
Unique ID : 175958426308957799613068072982655678242 (0x84605C37597E7E3E8A43618A82D23722)
Complete name : Заключенный Р (2010) BDRip-720p HDLine.mkv
Format : Matroska
Format version : Version 2
File size : 4.67 GiB
Duration : 1h 36mn
Overall bit rate : 6 961 Kbps
Movie name : Заключенный Р (2010) BDRip-720p HDLine
Encoded date : UTC 2015-07-07 17:40:14
Writing application : mkvmerge v8.1.0 ('Psychedelic Postcard') 64bit
Writing library : libebml v1.3.1 + libmatroska v1.4.2
Attachements : Cover.jpg
DURATION : 01:30:16.999000000
NUMBER_OF_FRAMES : 647
NUMBER_OF_BYTES : 23946
_STATISTICS_WRITING_APP : mkvmerge v8.1.0 ('Psychedelic Postcard') 64bit
_STATISTICS_WRITING_DATE_UTC : 2015-07-07 17:40:14
_STATISTICS_TAGS : BPS DURATION NUMBER_OF_FRAMES NUMBER_OF_BYTES

Video
ID : 1
Format : AVC
Format/Info : Advanced Video Codec
Format profile : High@L3.1
Format settings, CABAC : Yes
Format settings, ReFrames : 4 frames
Codec ID : V_MPEG4/ISO/AVC
Duration : 1h 36mn
Bit rate : 5 615 Kbps
Width : 1 280 pixels
Height : 720 pixels
Display aspect ratio : 16:9
Frame rate mode : Constant
Frame rate : 25.000 fps
Color space : YUV
Chroma subsampling : 4:2:0
Bit depth : 8 bits
Scan type : Progressive
Bits/(Pixel*Frame) : 0.244
Stream size : 3.67 GiB (79%)
Title : R (2010)
Writing library : x264 core 146 r2538kMod 121396c
Encoding settings : cabac=1 / ref=5 / deblock=1:0:0 / analyse=0x3:0x133 / me=umh / subme=10 / psy=1 / fade_compensate=0.00 / psy_rd=1.00:0.00 / mixed_ref=1 / me_range=24 / chroma_me=1 / trellis=2 / 8x8dct=1 / cqm=0 / deadzone=21,11 / fast_pskip=1 / chroma_qp_offset=-2 / threads=10 / lookahead_threads=1 / sliced_threads=0 / nr=0 / decimate=1 / interlaced=0 / bluray_compat=1 / constrained_intra=0 / fgo=0 / bframes=3 / b_pyramid=1 / b_adapt=2 / b_bias=0 / direct=3 / weightb=1 / open_gop=0 / weightp=1 / keyint=250 / keyint_min=1 / scenecut=40 / intra_refresh=0 / rc_lookahead=60 / rc=2pass / mbtree=1 / bitrate=5615 / ratetol=1.0 / qcomp=0.60 / qpmin=0 / qpmax=69 / qpstep=4 / cplxblur=20.0 / qblur=0.5 / ip_ratio=1.40 / aq=1:1.00
Language : Danish
Default : Yes
Forced : No
DURATION : 01:36:02.280000000
NUMBER_OF_FRAMES : 144057
NUMBER_OF_BYTES : 4043884536
_STATISTICS_WRITING_APP : mkvmerge v8.1.0 ('Psychedelic Postcard') 64bit
_STATISTICS_WRITING_DATE_UTC : 2015-07-07 17:40:14
_STATISTICS_TAGS : BPS DURATION NUMBER_OF_FRAMES NUMBER_OF_BYTES

Audio #1
ID : 2
Format : AC-3
Format/Info : Audio Coding 3
Mode extension : CM (complete main)
Format settings, Endianness : Big
Codec ID : A_AC3
Duration : 1h 36mn
Bit rate mode : Constant
Bit rate : 448 Kbps
Channel(s) : 6 channels
Channel positions : Front: L C R, Side: L R, LFE
Sampling rate : 48.0 KHz
Bit depth : 16 bits
Compression mode : Lossy
Stream size : 308 MiB (6%)
Title : MVO 'Novy Disc' AC3 5.1 48KHz@448kbps
Language : Russian
Default : Yes
Forced : No

Audio #2
ID : 3
Format : AC-3
Format/Info : Audio Coding 3
Mode extension : CM (complete main)
Format settings, Endianness : Big
Codec ID : A_AC3
Duration : 1h 36mn
Bit rate mode : Constant
Bit rate : 448 Kbps
Channel(s) : 6 channels
Channel positions : Front: L C R, Side: L R, LFE
Sampling rate : 48.0 KHz
Bit depth : 16 bits
Compression mode : Lossy
Stream size : 308 MiB (6%)
Title : AC3 5.1 48KHz@448kbps
Language : German
Default : No
Forced : No

Audio #3
ID : 4
Format : AC-3
Format/Info : Audio Coding 3
Mode extension : CM (complete main)
Format settings, Endianness : Big
Codec ID : A_AC3
Duration : 1h 36mn
Bit rate mode : Constant
Bit rate : 448 Kbps
Channel(s) : 6 channels
Channel positions : Front: L C R, Side: L R, LFE
Sampling rate : 48.0 KHz
Bit depth : 16 bits
Compression mode : Lossy
Stream size : 308 MiB (6%)
Title : AC3 5.1 48KHz@448kbps
Language : Danish
Default : No
Forced : No

Text #1
ID : 5
Format : UTF-8
Codec ID : S_TEXT/UTF8
Codec ID/Info : UTF-8 Plain Text
Language : Russian
Default : No
Forced : No

Text #2
ID : 6
Format : UTF-8
Codec ID : S_TEXT/UTF8
Codec ID/Info : UTF-8 Plain Text
Language : English
Default : No
Forced : No

Text #3
ID : 7
Format : UTF-8
Codec ID : S_TEXT/UTF8
Codec ID/Info : UTF-8 Plain Text
Language : German
Default : No
Forced : No

Text #4
ID : 8
Format : UTF-8
Codec ID : S_TEXT/UTF8
Codec ID/Info : UTF-8 Plain Text
Language : Danish
Default : No
Forced : No

Menu
00:00:00.000 : en:00:00:00
00:07:53.000 : en:00:07:53
00:15:23.240 : en:00:15:23
00:21:05.240 : en:00:21:05
00:30:17.640 : en:00:30:17
00:39:09.920 : en:00:39:09
00:49:39.119 : en:00:49:39
00:56:28.599 : en:00:56:28
01:04:01.920 : en:01:04:01
01:11:49.760 : en:01:11:49
01:19:08.600 : en:01:19:08
01:27:55.479 : en:01:27:55

Релиз группа:
Просмотров:326
Размер:4.67 ГБ (5,013,646,677 байт) » файлов: 1 [ список файлов ] [ хеш ]
Скачали:217 раз(а) [ список скачавших ]
Участники:32 раздают, 0 качают (32 участников всего)
Похожие торренты:не найдены...
Рапорт:[ пожаловаться на контент ]
Благодарность: 5 [ список ]
Чтобы оставить комментарий, войдите в систему или зарегистрируйтесь!
    
Файлы обмена предоставлены пользователями трекера, администрация не несет ответственность за их содержание. Большая просьба не заливать файлы, защищенными авторскими правами, а так же файлы с нелегальным содержанием.
Рейтинг торрент трекеров