Июл
06

Робот по имени Чаппи / Chappie (2015) HDRip

Загружено: 06 июля 2015 в 13:02 от shkiper
  • 80
Техническая информация
Видео: 608x256, 738 kbps, XviD, AVI, HDRip
Аудио: 128 kbps, MP3
Перевод: Профессиональный (дублирование)
Субтитры: Отсутствуют
Звуковая дорожка: Русская
Продолжительность: 02:00
Рейтинг
 

Чаппи — вундеркинд. Как и любой другой ребенок, он попадает под влияние своего окружения, и только его сердце и душа помогут ему найти свой путь. Но есть одна вещь, которая делает Чаппи непохожим на всех остальных: он — первый робот, способный чувствовать и думать.

Релиз от:
Автор Рипа:

MI
General
Complete name : D:Изготовление рипаChappie.2015.HDRip.by shkiper.avi
Format : AVI
Format/Info : Audio Video Interleave
File size : 749 MiB
Duration : 1h 59mn
Overall bit rate : 876 Kbps
Writing application : VirtualDubMod 1.5.10.3 | www.virtualdub-fr.org || (build 2550/release)
Writing library : VirtualDubMod build 2550/release

Video
ID : 0
Format : MPEG-4 Visual
Format profile : Advanced Simple@L5
Format settings, BVOP : 1
Format settings, QPel : No
Format settings, GMC : No warppoints
Format settings, Matrix : Default (MPEG)
Codec ID : XVID
Codec ID/Hint : XviD
Duration : 1h 59mn
Bit rate : 739 Kbps
Width : 608 pixels
Height : 256 pixels
Display aspect ratio : 2.40:1
Frame rate : 23.976 fps
Color space : YUV
Chroma subsampling : 4:2:0
Bit depth : 8 bits
Scan type : Progressive
Compression mode : Lossy
Bits/(Pixel*Frame) : 0.198
Stream size : 632 MiB (84%)
Writing library : XviD 73

Audio
ID : 1
Format : MPEG Audio
Format version : Version 1
Format profile : Layer 3
Mode : Joint stereo
Mode extension : MS Stereo
Codec ID : 55
Codec ID/Hint : MP3
Duration : 1h 59mn
Bit rate mode : Constant
Bit rate : 128 Kbps
Channel(s) : 2 channels
Sampling rate : 48.0 KHz
Compression mode : Lossy
Stream size : 109 MiB (15%)
Alignment : Aligned on interleaves
Interleave, duration : 42 ms (1.00 video frame)
Interleave, preload duration : 504 ms
Writing library : LAME3.99r
Encoding settings : -m j -V 4 -q 2 -lowpass 17 -b 128
Интересные факты

Релиз группа:
Просмотров:350
Размер:749.05 МБ (785,432,576 байт) » файлов: 1 [ список файлов ] [ хеш ]
Скачали:93 раз(а) [ список скачавших ]
Участники:? раздают, 0 качают (? участников всего)
Похожие торренты:не найдены...
Рапорт:[ пожаловаться на контент ]
Благодарность: 8 [ список ]
Чтобы оставить комментарий, войдите в систему или зарегистрируйтесь!
    
Файлы обмена предоставлены пользователями трекера, администрация не несет ответственность за их содержание. Большая просьба не заливать файлы, защищенными авторскими правами, а так же файлы с нелегальным содержанием.
Рейтинг торрент трекеров