Июл
05

Робот по имени Чаппи / Chappie (2015) BDRip | 720p

Загружено: 05 июля 2015 в 07:35 от shkiper
  • 80
Техническая информация
Видео: 1280x534, 3920 kbps, H.264, MKV, BDRip
Аудио: 640 kbps, AC3
Перевод: Профессиональный (дублирование)
Субтитры: Русские + Английские
Звуковая дорожка: Русская + Английская
Продолжительность: 02:00
Рейтинг
 

Чаппи — вундеркинд. Как и любой другой ребенок, он попадает под влияние своего окружения, и только его сердце и душа помогут ему найти свой путь. Но есть одна вещь, которая делает Чаппи непохожим на всех остальных: он — первый робот, способный чувствовать и думать.
MI & x264
Общее
Уникальный идентификатор : 172040444150823477697145920646404242457 (0x816DC8C81E7D1C84957251181CB5FC19)
Полное имя : Chappie.2015.BDRip.720p.Rus.Eng.mkv
Формат : Matroska
Версия формата : Version 2
Размер файла : 4,37 Гбайт
Продолжительность : 2 ч. 0 м.
Общий поток : 5200 Кбит/сек
Название фильма : Робот по имени Чаппи / Chappie (2015)
Дата кодирования : UTC 2015-07-04 15:09:57
Программа кодирования : mkvmerge v5.8.0 ('No Sleep / Pillow') built on Sep 2 2012 15:37:04
Библиотека кодирования : libebml v1.2.3 + libmatroska v1.3.0

Видео
Идентификатор : 1
Формат : AVC
Формат/Информация : Advanced Video Codec
Профиль формата : High@L4.1
Параметр CABAC формата : Да
Параметр ReFrames формата : 10 кадров
Идентификатор кодека : V_MPEG4/ISO/AVC
Продолжительность : 2 ч. 0 м.
Битрейт : 3920 Кбит/сек
Ширина : 1280 пикселей
Высота : 534 пикселя
Соотношение сторон : 2,40:1
Режим частоты кадров : Постоянный
Частота кадров : 23,976 кадра/сек
Цветовое пространство : YUV
Субдискретизация насыщенности : 4:2:0
Битовая глубина : 8 бит
Тип развёртки : Прогрессивная
Бит/(Пиксели*Кадры) : 0.239
Размер потока : 3,21 Гбайт (73%)
Заголовок : Release by AlexKa
Библиотека кодирования : x264 core 146 r2538 121396c
Настройки программы : cabac=1 / ref=10 / deblock=1:-3:-3 / analyse=0x3:0x133 / me=umh / subme=11 / psy=1 / psy_rd=1.00:0.00 / mixed_ref=1 / me_range=32 / chroma_me=1 / trellis=2 / 8x8dct=1 / cqm=0 / deadzone=21,11 / fast_pskip=0 / chroma_qp_offset=-2 / threads=12 / lookahead_threads=2 / sliced_threads=0 / nr=0 / decimate=0 / interlaced=0 / bluray_compat=0 / constrained_intra=0 / bframes=9 / b_pyramid=2 / b_adapt=2 / b_bias=0 / direct=3 / weightb=1 / open_gop=0 / weightp=2 / keyint=240 / keyint_min=23 / scenecut=40 / intra_refresh=0 / rc=2pass / mbtree=0 / bitrate=3920 / ratetol=1.0 / qcomp=0.60 / qpmin=0 / qpmax=69 / qpstep=4 / cplxblur=20.0 / qblur=0.5 / ip_ratio=1.40 / pb_ratio=1.30 / aq=1:0.70
Язык : English

Аудио #1
Идентификатор : 2
Формат : AC-3
Формат/Информация : Audio Coding 3
Расширение режима : CM (complete main)
Параметр Endianness формата : Big
Идентификатор кодека : A_AC3
Продолжительность : 2 ч. 0 м.
Вид битрейта : Постоянный
Битрейт : 640 Кбит/сек
Каналы : 6 каналов
Расположение каналов : Front: L C R, Side: L R, LFE
Частота : 48,0 КГц
Метод сжатия : С потерями
Размер потока : 551 Мбайт (12%)
Заголовок : Rus
Язык : Russian

Аудио #2
Идентификатор : 3
Формат : AC-3
Формат/Информация : Audio Coding 3
Расширение режима : CM (complete main)
Параметр Endianness формата : Big
Идентификатор кодека : A_AC3
Продолжительность : 2 ч. 0 м.
Вид битрейта : Постоянный
Битрейт : 640 Кбит/сек
Каналы : 6 каналов
Расположение каналов : Front: L C R, Side: L R, LFE
Частота : 48,0 КГц
Метод сжатия : С потерями
Размер потока : 551 Мбайт (12%)
Заголовок : Eng
Язык : English

Текст #1
Идентификатор : 4
Формат : UTF-8
Идентификатор кодека : S_TEXT/UTF8
Идентификатор кодека/Информация : UTF-8 Plain Text
Заголовок : Rus forced
Язык : Russian

Текст #2
Идентификатор : 5
Формат : UTF-8
Идентификатор кодека : S_TEXT/UTF8
Идентификатор кодека/Информация : UTF-8 Plain Text
Заголовок : Rus
Язык : Russian

Текст #3
Идентификатор : 6
Формат : UTF-8
Идентификатор кодека : S_TEXT/UTF8
Идентификатор кодека/Информация : UTF-8 Plain Text
Заголовок : Eng
Язык : English

Меню
00:00:00.000 : :Chapter 01
00:03:37.008 : :Chapter 02
00:09:55.261 : :Chapter 03
00:13:50.496 : :Chapter 04
00:21:53.645 : :Chapter 05
00:31:17.542 : :Chapter 06
00:37:19.320 : :Chapter 07
00:46:58.732 : :Chapter 08
00:54:36.690 : :Chapter 09
01:06:12.927 : :Chapter 10
01:09:57.651 : :Chapter 11
01:16:48.395 : :Chapter 12
01:24:59.552 : :Chapter 13
01:31:35.198 : :Chapter 14
01:42:36.942 : :Chapter 15
01:50:03.597 : :Chapter 16
------------------------------------------------
x264 [info]: frame I:1730 Avg QP:14.97 size:115858
x264 [info]: frame P:42375 Avg QP:17.62 size: 39594
x264 [info]: frame B:128983 Avg QP:19.99 size: 12845
x264 [info]: consecutive B-frames: 3.0% 4.3% 9.0% 37.5% 15.9% 21.6% 3.9% 3.5% 0.8% 0.5%
Интересные факты

Релиз группа:
Просмотров:384
Размер:4.37 ГБ (4,692,218,769 байт) » файлов: 1 [ список файлов ] [ хеш ]
Скачали:1780 раз(а) [ список скачавших ]
Участники:110 раздают, 0 качают (110 участников всего)
Похожие торренты:не найдены...
Рапорт:[ пожаловаться на контент ]
Благодарность: 21 [ список ]
Чтобы оставить комментарий, войдите в систему или зарегистрируйтесь!
    
Файлы обмена предоставлены пользователями трекера, администрация не несет ответственность за их содержание. Большая просьба не заливать файлы, защищенными авторскими правами, а так же файлы с нелегальным содержанием.
Рейтинг торрент трекеров