Июл
05

Континуум / Project Almanac (2014) BDRip

Загружено: 05 июля 2015 в 06:26 от Alexon58
  • 80
Техническая информация
Видео: 1024x424, 4000 kbps, AVC, MKV, BDRip
Аудио: 640 kbps, AC3
Перевод: Профессиональный (дублирование)
Субтитры: Русские + Английские
Звуковая дорожка: Русская
Продолжительность: 01:46
Рейтинг
 

Однажды после просмотра старой пленки со дня рождения уже взрослый именинник заметил себя «настоящего» в отражении на видео. Съедаемые любопытством, друзья нашли чертежи таинственного устройства, похожего на машину времени. Они решили доделать ее и испробовать, чтобы вернуться в прошлое и исправить некоторые ошибки.
Но что будет, если группа отвязных тинейджеров случайно завладеет машиной времени? Однозначно, будет весело! Пока кто-то не нарушит правила, и веселая шутка не обернется кошмаром. Надо торопиться восстановить континуум, пока мир окончательно не разрушен!


"MI"
General
Unique ID : 193569943714374073573829235323045082058 (0x91A037105A870907A82139E02DC2F3CA)
Complete name : A:\Фильмы\Континуум BDRip-AVC 60fps R.G. HD-Films.mkv
Format : Matroska
Format version : Version 4 / Version 2
File size : 3.44 GiB
Duration : 1h 46mn
Overall bit rate : 4 640 Kbps
Movie name : Tiberiumsun69
Encoded date : UTC 2015-06-29 23:31:58
Writing application : mkvmerge v7.9.0 ('Birds') 64bit
Writing library : libebml v1.3.1 + libmatroska v1.4.2
Attachment : Yes

Video
ID : 1
Format : AVC
Format/Info : Advanced Video Codec
Format profile : High@L4.1
Format settings, CABAC : Yes
Format settings, ReFrames : 4 frames
Codec ID : V_MPEG4/ISO/AVC
Duration : 1h 46mn
Bit rate : 4 000 Kbps
Width : 1 024 pixels
Height : 424 pixels
Display aspect ratio : 2.40:1
Frame rate : 59.940 fps
Color space : YUV
Chroma subsampling : 4:2:0
Bit depth : 8 bits
Scan type : Progressive
Bits/(Pixel*Frame) : 0.154
Stream size : 2.90 GiB (84%)
Title : Tiberiumsun69
Writing library : x264 core 146 r2538 121396c
Encoding settings : cabac=1 / ref=4 / deblock=1:0:0 / analyse=0x3:0x113 / me=umh / subme=9 / psy=1 / psy_rd=1.00:0.10 / mixed_ref=1 / me_range=32 / chroma_me=1 / trellis=2 / 8x8dct=1 / cqm=0 / deadzone=21,11 / fast_pskip=0 / chroma_qp_offset=-3 / threads=12 / lookahead_threads=3 / sliced_threads=0 / nr=0 / decimate=1 / interlaced=0 / bluray_compat=0 / constrained_intra=0 / bframes=16 / b_pyramid=2 / b_adapt=2 / b_bias=0 / direct=3 / weightb=1 / open_gop=0 / weightp=2 / keyint=600 / keyint_min=59 / scenecut=40 / intra_refresh=0 / rc_lookahead=60 / rc=2pass / mbtree=1 / bitrate=4000 / ratetol=1.0 / qcomp=0.60 / qpmin=0 / qpmax=69 / qpstep=4 / cplxblur=20.0 / qblur=0.5 / vbv_maxrate=50000 / vbv_bufsize=62500 / nal_hrd=none / filler=0 / ip_ratio=1.40 / aq=1:1.00
Language : English
Default : Yes
Forced : No

Audio
ID : 2
Format : AC-3
Format/Info : Audio Coding 3
Mode extension : CM (complete main)
Codec ID : A_AC3
Duration : 1h 46mn
Bit rate mode : Constant
Bit rate : 640 Kbps
Channel(s) : 6 channels
Channel positions : Front: L C R, Side: L R, LFE
Sampling rate : 48.0 KHz
Bit depth : 16 bits
Compression mode : Lossy
Stream size : 486 MiB (14%)
Title : Дубляж
Language : Russian
Default : No
Forced : No

Text #1
ID : 3
Format : UTF-8
Codec ID : S_TEXT/UTF8
Codec ID/Info : UTF-8 Plain Text
Title : Форсированные
Language : Russian
Default : Yes
Forced : No

Text #2
ID : 4
Format : UTF-8
Codec ID : S_TEXT/UTF8
Codec ID/Info : UTF-8 Plain Text
Title : Полные
Language : Russian
Default : No
Forced : No

Text #3
ID : 5
Format : UTF-8
Codec ID : S_TEXT/UTF8
Codec ID/Info : UTF-8 Plain Text
Title : Полные
Language : English
Default : No
Forced : No

Menu
00:00:00.000 : :Chapter 01
00:07:56.308 : :Chapter 02
00:15:20.210 : :Chapter 03
00:23:49.802 : :Chapter 04
00:31:15.664 : :Chapter 05
00:39:19.273 : :Chapter 06
00:46:58.273 : :Chapter 07
00:54:11.956 : :Chapter 08
01:00:55.485 : :Chapter 09
01:09:43.304 : :Chapter 10
01:16:24.371 : :Chapter 11
01:23:07.731 : :Chapter 12
01:32:20.618 : :Chapter 13
01:41:19.323 : :Chapter 14
01:46:12.532 : :Chapter 15
Дополнительная информация
Трейлер

Релиз группа:
Просмотров:328
Размер:3.44 ГБ (3,696,440,386 байт) » файлов: 1 [ список файлов ] [ хеш ]
Скачали:479 раз(а) [ список скачавших ]
Участники:21 раздают, 0 качают (21 участников всего)
Похожие торренты:не найдены...
Рапорт:[ пожаловаться на контент ]
Благодарность: 12 [ список ]
Чтобы оставить комментарий, войдите в систему или зарегистрируйтесь!
    
Файлы обмена предоставлены пользователями трекера, администрация не несет ответственность за их содержание. Большая просьба не заливать файлы, защищенными авторскими правами, а так же файлы с нелегальным содержанием.
Рейтинг торрент трекеров