Июн
25

Три плюс два (1963) BDRip | 720p

Загружено: 25 июня 2015 в 06:59 от shkiper
  • 80
Техническая информация
Видео: 1280x528, 5600 kbps, H.264, MKV, BDRip
Аудио: 448 kbps, AC3
Перевод: Не требуется
Субтитры: Отсутствуют
Звуковая дорожка: Русская
Продолжительность: 01:41
Рейтинг
 

Трое друзей из Москвы живут «дикарями» в замечательном месте с песчаным пляжем, пресной водой, тенью и дровами у самого моря. Отдыхают.

Внезапно приезжают две незнакомки и заявляют, что это их старое место. Более того, они доказывают свое первенство, выкопав бутылку с письмом. Но уезжать ребята отказываются. Дамы же от своего места отказываться тоже не собираются и ставят палатку.

Начинается тихая война, перерастающая со временем в любовь. Один из тех фильмов, которые можно пересматривать не один раз.
MI
Complete name : Tri.plus.dva.1963.x264.BDRip.(720p)-MediaClub.mkv
Format : Matroska
Format version : Version 4 / Version 2
File size : 4.20 GiB
Duration : 1h 39mn
Overall bit rate : 6 050 Kbps
Encoded date : UTC 2015-06-23 08:20:58
Writing application : mkvmerge v7.8.0 ('River Man') 32bit built on Mar 27 2015 16:18:02
Writing library : libebml v1.3.1 + libmatroska v1.4.2
DURATION : 01:39:20.352000000
NUMBER_OF_FRAMES : 186261
NUMBER_OF_BYTES : 333779712
_STATISTICS_WRITING_APP : mkvmerge v7.8.0 ('River Man') 32bit built on Mar 27 2015 16:18:02
_STATISTICS_WRITING_DATE_UTC : 2015-06-23 08:20:58
_STATISTICS_TAGS : BPS DURATION NUMBER_OF_FRAMES NUMBER_OF_BYTES

Video
ID : 1
Format : AVC
Format/Info : Advanced Video Codec
Format profile : High@L4.1
Format settings, CABAC : Yes
Format settings, ReFrames : 10 frames
Codec ID : V_MPEG4/ISO/AVC
Duration : 1h 39mn
Bit rate : 5 600 Kbps
Width : 1 280 pixels
Height : 528 pixels
Display aspect ratio : 2.40:1
Frame rate mode : Constant
Frame rate : 23.976 fps
Color space : YUV
Chroma subsampling : 4:2:0
Bit depth : 8 bits
Scan type : Progressive
Bits/(Pixel*Frame) : 0.346
Stream size : 3.80 GiB (91%)
Writing library : x264 core 144 r2525 40bb568
Encoding settings : cabac=1 / ref=10 / deblock=1:-3:-3 / analyse=0x3:0x133 / me=umh / subme=11 / psy=1 / psy_rd=1.00:0.20 / mixed_ref=1 / me_range=32 / chroma_me=1 / trellis=2 / 8x8dct=1 / cqm=0 / deadzone=21,11 / fast_pskip=0 / chroma_qp_offset=-3 / threads=6 / lookahead_threads=1 / sliced_threads=0 / nr=0 / decimate=0 / interlaced=0 / bluray_compat=0 / constrained_intra=0 / bframes=9 / b_pyramid=2 / b_adapt=2 / b_bias=0 / direct=3 / weightb=1 / open_gop=0 / weightp=2 / keyint=240 / keyint_min=23 / scenecut=40 / intra_refresh=0 / rc=2pass / mbtree=0 / bitrate=5600 / ratetol=1.0 / qcomp=0.60 / qpmin=0 / qpmax=69 / qpstep=4 / cplxblur=20.0 / qblur=0.5 / ip_ratio=1.40 / pb_ratio=1.30 / aq=3:0.90
Language : Russian
Default : Yes
Forced : No
DURATION : 01:39:22.133000000
NUMBER_OF_FRAMES : 142948
NUMBER_OF_BYTES : 4173499394
_STATISTICS_WRITING_APP : mkvmerge v7.8.0 ('River Man') 32bit built on Mar 27 2015 16:18:02
_STATISTICS_WRITING_DATE_UTC : 2015-06-23 08:20:58
_STATISTICS_TAGS : BPS DURATION NUMBER_OF_FRAMES NUMBER_OF_BYTES

Audio
ID : 2
Format : AC-3
Format/Info : Audio Coding 3
Mode extension : CM (complete main)
Format settings, Endianness : Big
Codec ID : A_AC3
Duration : 1h 39mn
Bit rate mode : Constant
Bit rate : 448 Kbps
Channel(s) : 6 channels
Channel positions : Front: L C R, Side: L R, LFE
Sampling rate : 48.0 KHz
Bit depth : 16 bits
Compression mode : Lossy
Stream size : 318 MiB (7%)
Language : Russian
Default : Yes
Forced : No

Menu
00:00:00.000 : :Chapter 01
00:09:49.505 : :Chapter 02
00:20:27.601 : :Chapter 03
00:28:29.374 : :Chapter 04
00:35:02.683 : :Chapter 05
00:41:33.282 : :Chapter 06
00:48:43.545 : :Chapter 07
00:55:29.326 : :Chapter 08
01:01:13.795 : :Chapter 09
01:04:52.763 : :Chapter 10
01:10:00.196 : :Chapter 11
01:16:04.851 : :Chapter 12
01:26:28.683 : :Chapter 13
01:33:06.205 : :Chapter 14
Интересные факты

Релиз группа:
Просмотров:318
Размер:4.20 ГБ (4,508,640,884 байт) » файлов: 1 [ список файлов ] [ хеш ]
Скачали:413 раз(а) [ список скачавших ]
Участники:34 раздают, 0 качают (34 участников всего)
Похожие торренты:не найдены...
Рапорт:[ пожаловаться на контент ]
Благодарность: 5 [ список ]
Чтобы оставить комментарий, войдите в систему или зарегистрируйтесь!
    
Файлы обмена предоставлены пользователями трекера, администрация не несет ответственность за их содержание. Большая просьба не заливать файлы, защищенными авторскими правами, а так же файлы с нелегальным содержанием.
Рейтинг торрент трекеров