Июн
25

Они сражались за Родину (1975) BDRip

Загружено: 25 июня 2015 в 06:50 от shkiper
  • 80
Техническая информация
Видео: 992x720, 6600 kbps, H.264, MKV, BDRip
Аудио: 448 kbps, AC3
Перевод: Не требуется
Субтитры: Отсутствуют
Звуковая дорожка: Русская
Продолжительность: 02:37
Рейтинг
 

Июль 1942 года. На подступах к Сталинграду обескровленные, измотанные советские войска ведут тяжелые оборонительные бои, неся огромные потери… Фильм рассказывает о подвиге рядовых солдат, любви к родной земле, об истинной цене победы…
MI
Общее
Уникальный идентификатор : 213660590742457700901803252137889809875 (0xA0BD88705ED3EA45B2E5CD9D8172C5D3)
Полное имя : Oni.srazhalis.za.Rodinu.1975.BDRip.720p.Rus.mkv
Формат : Matroska
Версия формата : Version 2
Размер файла : 7,76 Гбайт
Продолжительность : 2 ч. 38 м.
Общий поток : 6986 Кбит/сек
Название фильма : Они сражались за Родину (1975)
Дата кодирования : UTC 2015-06-23 17:33:10
Программа кодирования : mkvmerge v5.8.0 ('No Sleep / Pillow') built on Sep 2 2012 15:37:04
Библиотека кодирования : libebml v1.2.3 + libmatroska v1.3.0

Видео
Идентификатор : 1
Формат : AVC
Формат/Информация : Advanced Video Codec
Профиль формата : High@L4.1
Параметр CABAC формата : Да
Параметр ReFrames формата : 9 кадров
Идентификатор кодека : V_MPEG4/ISO/AVC
Продолжительность : 2 ч. 38 м.
Битрейт : 6600 Кбит/сек
Ширина : 992 пикселя
Высота : 720 пикселей
Соотношение сторон : 1,378
Режим частоты кадров : Постоянный
Частота кадров : 23,976 кадра/сек
Цветовое пространство : YUV
Субдискретизация насыщенности : 4:2:0
Битовая глубина : 8 бит
Тип развёртки : Прогрессивная
Бит/(Пиксели*Кадры) : 0.385
Размер потока : 7,11 Гбайт (92%)
Заголовок : Release by AlexKa
Библиотека кодирования : x264 core 146 r2538 121396c
Настройки программы : cabac=1 / ref=9 / deblock=1:-3:-3 / analyse=0x3:0x133 / me=umh / subme=11 / psy=1 / psy_rd=1.00:0.10 / mixed_ref=1 / me_range=32 / chroma_me=1 / trellis=2 / 8x8dct=1 / cqm=0 / deadzone=21,11 / fast_pskip=0 / chroma_qp_offset=-3 / threads=12 / lookahead_threads=3 / sliced_threads=0 / nr=0 / decimate=0 / interlaced=0 / bluray_compat=0 / constrained_intra=0 / bframes=11 / b_pyramid=2 / b_adapt=2 / b_bias=0 / direct=3 / weightb=1 / open_gop=0 / weightp=2 / keyint=240 / keyint_min=23 / scenecut=40 / intra_refresh=0 / rc=2pass / mbtree=0 / bitrate=6600 / ratetol=1.0 / qcomp=0.60 / qpmin=0 / qpmax=69 / qpstep=4 / cplxblur=20.0 / qblur=0.5 / ip_ratio=1.40 / pb_ratio=1.30 / aq=1:0.80
Язык : Russian

Аудио
Идентификатор : 2
Формат : AC-3
Формат/Информация : Audio Coding 3
Расширение режима : CM (complete main)
Параметр Endianness формата : Big
Идентификатор кодека : A_AC3
Продолжительность : 2 ч. 38 м.
Вид битрейта : Постоянный
Битрейт : 448 Кбит/сек
Каналы : 6 каналов
Расположение каналов : Front: L C R, Side: L R, LFE
Частота : 48,0 КГц
Метод сжатия : С потерями
Размер потока : 509 Мбайт (6%)
Заголовок : Rus
Язык : Russian

Меню
00:00:00.000 : :Chapter 01
00:07:34.453 : :Chapter 02
00:18:17.096 : :Chapter 03
00:24:18.456 : :Chapter 04
00:31:00.859 : :Chapter 05
00:41:29.487 : :Chapter 06
00:50:25.022 : :Chapter 07
00:58:38.515 : :Chapter 08
01:12:39.354 : :Chapter 09
01:21:33.513 : :Chapter 10
01:31:06.294 : :Chapter 11
01:41:02.681 : :Chapter 12
01:48:47.354 : :Chapter 13
01:54:57.724 : :Chapter 14
02:02:08.946 : :Chapter 15
02:10:55.681 : :Chapter 16
02:18:56.161 : :Chapter 17
02:28:51.797 : :Chapter 18
Интересные факты

Релиз группа:
Просмотров:266
Размер:7.76 ГБ (8,328,834,978 байт) » файлов: 1 [ список файлов ] [ хеш ]
Скачали:432 раз(а) [ список скачавших ]
Участники:46 раздают, 0 качают (46 участников всего)
Похожие торренты:не найдены...
Рапорт:[ пожаловаться на контент ]
Благодарность: 1 [ список ]
Чтобы оставить комментарий, войдите в систему или зарегистрируйтесь!
    
Файлы обмена предоставлены пользователями трекера, администрация не несет ответственность за их содержание. Большая просьба не заливать файлы, защищенными авторскими правами, а так же файлы с нелегальным содержанием.
Рейтинг торрент трекеров