Июн
16

Недетское кино / Not Another Teen Movie (2001) WEB-DLRip | 720p

Загружено: 16 июня 2015 в 09:05 от shkiper
  • 0
Техническая информация
Видео: 1280х718, 3852 kbps, AVC, MKV, WEB-DLRip
Аудио: 192 kbps, AC3
Перевод: Профессиональный (многоголосый)
Субтитры: Отсутствуют
Звуковая дорожка: Русская + Английская
Продолжительность: 01:28:59
Рейтинг
 

Популярный в школе парень и звезда футбольной команды Джейк Уилер, ослепленный собственной славой и успехом, заключает пари со своими друзьями.

Уилер делает ставку на то, что может сделать из любой девушки, посещающей их школу королеву школьного бала. Друзья сразу же выбирают предмет своей шутки — внешне малопривлекательную начинающую художницу Джэни Бриггс, чей комбинезон всегда в краске, которая носит очки и собирает свои волосы в «хвост». Джэни является изгоем в своем классе, однако пройдя через ряд событий, Уиллер понимает, что он любит этого «гадкого утенка»…

Перевод 2: Авторский (одноголосый закадровый) Евгений Гранкин
Аудио
Аудио 1: 48 kHz, AC3 Dolby Digital, 2/0 (L,R) ch, ~192 kbps Многоголоска
Аудио 2: 48 kHz, AC3 Dolby Digital, 2/0 (L,R) ch, ~192 kbps Гранкин
Аудио 3: 48 kHz, AC3 Dolby Digital, 2/0 (L,R) ch, ~192 kbps Английский
MI
Полное имя : Nedetskoe.kino.2001.Triple.WEBDL.mkv
Формат : Matroska
Версия формата : Version 2
Размер файла : 2,81 Гбайт
Продолжительность : 1 ч. 28 м.
Общий поток : 4514 Кбит/сек
Название фильма : Nedetskoe.kino.2001.Triple.WEBDL
Дата кодирования : UTC 2013-02-23 12:20:04
Программа кодирования : mkvmerge v4.0.0 ('The Stars were mine') сборка от Jun 6 2010 16:18:42
Библиотека кодирования : libebml v1.0.0 + libmatroska v1.0.0

Видео
Идентификатор : 1
Формат : AVC
Формат/Информация : Advanced Video Codec
Профиль формата : High@L3.1
Параметр CABAC формата : Нет
Параметр ReFrames формата : 2 кадра
Идентификатор кодека : V_MPEG4/ISO/AVC
Продолжительность : 1 ч. 28 м.
Битрейт : 3849 Кбит/сек
Ширина : 1280 пикселей
Высота : 718 пикселей
Соотношение сторон : 16:9
Режим частоты кадров : Постоянный
Частота кадров : 23,976 кадра/сек
Цветовое пространство : YUV
Субдискретизация насыщенности : 4:2:0
Битовая глубина : 8 бит
Тип развёртки : Прогрессивная
Бит/(Пиксели*Кадры) : 0.175
Размер потока : 2,39 Гбайт (85%)
Язык : English
Default : Нет
Forced : Нет
Основные цвета : BT.709
Характеристики трансфера : BT.709
Коэффициенты матрицы : BT.709

Аудио #1
Идентификатор : 2
Формат : AC-3
Формат/Информация : Audio Coding 3
Расширение режима : CM (complete main)
Параметр Endianness формата : Big
Идентификатор кодека : A_AC3
Продолжительность : 1 ч. 28 м.
Вид битрейта : Постоянный
Битрейт : 192 Кбит/сек
Каналы : 2 канала
Расположение каналов : Front: L R
Частота : 48,0 КГц
Битовая глубина : 16 бит
Метод сжатия : С потерями
Задержка видео : 20 мс.
Размер потока : 122 Мбайт (4%)
Заголовок : MVO
Язык : Russian
Default : Да
Forced : Нет

Аудио #2
Идентификатор : 3
Формат : AC-3
Формат/Информация : Audio Coding 3
Расширение режима : CM (complete main)
Параметр Endianness формата : Big
Идентификатор кодека : A_AC3
Продолжительность : 1 ч. 28 м.
Вид битрейта : Постоянный
Битрейт : 192 Кбит/сек
Каналы : 2 канала
Расположение каналов : Front: L R
Частота : 48,0 КГц
Битовая глубина : 16 бит
Метод сжатия : С потерями
Задержка видео : 20 мс.
Размер потока : 122 Мбайт (4%)
Заголовок : Grankin
Язык : Russian
Default : Нет
Forced : Нет

Аудио #3
Идентификатор : 4
Формат : AC-3
Формат/Информация : Audio Coding 3
Расширение режима : CM (complete main)
Параметр Endianness формата : Big
Идентификатор кодека : A_AC3
Продолжительность : 1 ч. 28 м.
Вид битрейта : Постоянный
Битрейт : 192 Кбит/сек
Каналы : 2 канала
Расположение каналов : Front: L R
Частота : 48,0 КГц
Битовая глубина : 16 бит
Метод сжатия : С потерями
Задержка видео : 24 мс.
Размер потока : 122 Мбайт (4%)
Заголовок : original
Язык : English
Default : Нет
Forced : Нет

Релиз группа:
Просмотров:346
Размер:2.81 ГБ (3,013,181,852 байт) » файлов: 1 [ список файлов ] [ хеш ]
Скачали:746 раз(а) [ список скачавших ]
Участники:10 раздают, 0 качают (10 участников всего)
Похожие торренты:не найдены...
Рапорт:[ пожаловаться на контент ]
Благодарность: 3 [ список ]
Чтобы оставить комментарий, войдите в систему или зарегистрируйтесь!
    
Файлы обмена предоставлены пользователями трекера, администрация не несет ответственность за их содержание. Большая просьба не заливать файлы, защищенными авторскими правами, а так же файлы с нелегальным содержанием.
Рейтинг торрент трекеров