Июн
06

Неуловимые (2015) WEB-DLRip

Загружено: 06 июня 2015 в 16:50 от shkiper
  • 80
Техническая информация
Видео: 720x304, 2195 kbps, XviD, AVI, WEB-DLRip
Аудио: 192 kbps, AC3
Перевод: Не требуется
Субтитры: Отсутствуют
Звуковая дорожка: Русская
Продолжительность: 01:26:17
Рейтинг
 

Ночью в центре Москвы сбита девушка, ей срочно нужна сложнейшая операция. Ее подруга Кира находит виновника, наглого и циничного олигарха Сергея Полянского, который отказывается признать свою вину и помочь пострадавшей. Ему плевать, у него все схвачено. В отчаянии Кира обращается за помощью к трем парням симпатизирующим ей — быковатому Феде, самоуверенному красавчику Артему и компьютерному гению Жене. Парни заключают между собой пакт — «поможем девушке, накажем негодяя, а потом решим, кто станет ее парнем».
МI
Общее
Полное имя : D:\Торрент\ТЕСТ\Неуловимые\Neulovimie.2015_WEB-DLRip__[scarabey.org].avi
Формат : AVI
Формат/Информация : Audio Video Interleave
Размер файла : 1,45 Гбайт
Продолжительность : 1 ч. 26 м.
Общий поток : 2398 Кбит/сек
Программа кодирования : VirtualDubMod 1.5.10.3 | www.virtualdub-fr.org || (build 2550/release)
Библиотека кодирования : VirtualDubMod build 2550/release

Видео
Идентификатор : 0
Формат : MPEG-4 Visual
Профиль формата : Advanced Simple@L5
Параметр BVOP формата : 1
Параметр QPel формата : Нет
Параметр GMC формата : Без точки перехода
Параметр матрицы формата : Выборочная
Идентификатор кодека : XVID
Идентификатор кодека/Подсказка : XviD
Продолжительность : 1 ч. 26 м.
Битрейт : 2196 Кбит/сек
Ширина : 720 пикселей
Высота : 304 пикселя
Соотношение сторон : 2,35:1
Частота кадров : 25,000 кадров/сек
Цветовое пространство : YUV
Субдискретизация насыщенности : 4:2:0
Битовая глубина : 8 бит
Тип развёртки : Прогрессивная
Метод сжатия : С потерями
Бит/(Пиксели*Кадры) : 0.401
Размер потока : 1,32 Гбайт (92%)
Библиотека кодирования : XviD 73

Аудио
Идентификатор : 1
Формат : AC-3
Формат/Информация : Audio Coding 3
Расширение режима : CM (complete main)
Параметр Endianness формата : Big
Идентификатор кодека : 2000
Продолжительность : 1 ч. 26 м.
Вид битрейта : Постоянный
Битрейт : 192 Кбит/сек
Каналы : 2 канала
Расположение каналов : Front: L R
Частота : 48,0 КГц
Битовая глубина : 16 бит
Метод сжатия : С потерями
Размер потока : 119 Мбайт (8%)
Выравнивание : Разделение по промежуткам
Продолжительность промежутка : 40 мс. (1,00 видеокадр)
Время предзагрузки промежутка : 500 мс.


Релиз группа:
Просмотров:487
Размер:1.45 ГБ (1,551,904,768 байт) » файлов: 1 [ список файлов ] [ хеш ]
Скачали:931 раз(а) [ список скачавших ]
Участники:110 раздают, 0 качают (110 участников всего)
Похожие торренты:не найдены...
Рапорт:[ пожаловаться на контент ]
Благодарность: 14 [ список ]
Чтобы оставить комментарий, войдите в систему или зарегистрируйтесь!
    
Файлы обмена предоставлены пользователями трекера, администрация не несет ответственность за их содержание. Большая просьба не заливать файлы, защищенными авторскими правами, а так же файлы с нелегальным содержанием.
Рейтинг торрент трекеров