Май
29

Собачий полдень / Dog Day Afternoon (1975) BDRip | 720p

Загружено: 29 мая 2015 в 10:04 от shkiper
  • 80
Техническая информация
Видео: 1280x720, 6941 kbps, H.264, MKV, BDRip
Аудио: 192 kbps, AC3
Перевод: Профессиональный (многоголосый)
Субтитры: Русские + Английские
Звуковая дорожка: Русская
Продолжительность: 02:04:39
Рейтинг
 

В жаркий бруклинский полдень двое воодушевленных неудачников решают ограбить банк. Санни — главарь, Сэл — помощник, а провал — результат. Потому что полиция, толпы зевак, телекамеры и даже разносчик пиццы прибыли на место происшествия. «Хорошо спланированное» ограбление превращается в цирк.
MediaInfo
General
Complete name : Sobachiy.Polden.1975.DUAL.BDRip.720p.h264.AC3.-HQ-ViDEO.mkv
Format : Matroska
File size : 6.51 GiB
Duration : 2h 4mn
Overall bit rate : 7 474 Kbps
Movie name : Dog Day Afternoon (1975)
Encoded date : UTC 2010-09-24 05:01:17
Writing application : mkvmerge v3.3.0 ('Language') built on Mar 24 2010 14:59:24
Writing library : libebml v0.8.0 + libmatroska v0.9.0

Video
ID : 1
Format : AVC
Format/Info : Advanced Video Codec
Format profile : High@L4.1
Format settings, CABAC : Yes
Format settings, ReFrames : 6 frames
Muxing mode : Container profile=Unknown@4.1
Codec ID : V_MPEG4/ISO/AVC
Duration : 2h 4mn
Bit rate : 6 941 Kbps
Width : 1 280 pixels
Height : 720 pixels
Display aspect ratio : 16:9
Frame rate : 23.976 fps
Resolution : 8 bits
Colorimetry : 4:2:0
Scan type : Progressive
Bits/(Pixel*Frame) : 0.314
Stream size : 6.04 GiB (93%)
Title : Encoded by GYN

Audio #1
ID : 2
Format : AC-3
Format/Info : Audio Coding 3
Codec ID : A_AC3
Duration : 2h 4mn
Bit rate mode : Constant
Bit rate : 192 Kbps
Channel(s) : 2 channels
Channel positions : L R
Sampling rate : 48.0 KHz
Stream size : 171 MiB (3%)
Title : MVO
Language : Russian

Audio #2
ID : 3
Format : AC-3
Format/Info : Audio Coding 3
Codec ID : A_AC3
Duration : 2h 4mn
Bit rate mode : Constant
Bit rate : 192 Kbps
Channel(s) : 1 channel
Channel positions : C
Sampling rate : 48.0 KHz
Stream size : 171 MiB (3%)
Title : Original
Language : English

Text #1
ID : 4
Format : UTF-8
Codec ID : S_TEXT/UTF8
Codec ID/Info : UTF-8 Plain Text
Language : Russian

Text #2
ID : 5
Format : UTF-8
Codec ID : S_TEXT/UTF8
Codec ID/Info : UTF-8 Plain Text
Language : English
Интересные факты

Релиз группа:
Просмотров:321
Размер:6.51 ГБ (6,987,471,454 байт) » файлов: 1 [ список файлов ] [ хеш ]
Скачали:134 раз(а) [ список скачавших ]
Участники:4 раздают, 0 качают (4 участников всего)
Похожие торренты:не найдены...
Рапорт:[ пожаловаться на контент ]
Благодарность: 2 [ список ]
Чтобы оставить комментарий, войдите в систему или зарегистрируйтесь!
    
Файлы обмена предоставлены пользователями трекера, администрация не несет ответственность за их содержание. Большая просьба не заливать файлы, защищенными авторскими правами, а так же файлы с нелегальным содержанием.
Рейтинг торрент трекеров