Май
29

Дед 005 (2013) WEB-DL | 1080p

Загружено: 29 мая 2015 в 04:08 от Alexon58
  • 80
Техническая информация
Видео: 1920x1080, 4837 kbps, AVC, MKV, WEB-DL
Аудио: 384 kbps, AC3
Перевод: Не требуется
Субтитры: Отсутствуют
Звуковая дорожка: Русская
Продолжительность: 01:28
Рейтинг
 

Гений разведки Олег Степанович, полковник в отставке, тоскует без работы, коротая дни в парке и у телевизора… А в это время его внук Андрей, начинающий дипломат, попадает в затруднительную романтическую ситуацию. Дед летит к внуку в Ереван, где встречает своего старого товарища, кардиолога Ираклия, который тут же включается в «сердечное» дело. Операция по решению любовных проблем внука получает название «Дед 005», причём методы русского чекиста и грузинского врача иногда шокируют окружающих. Но только настоящая любовь способна взять верх над мастерством виртуозов контрразведки.
MI
Общее
Уникальный идентификатор : 223539653235118283854085651633697216404 (0xA82C2BD342F4895EAEBA29B6F16C5794)
Полное имя : D:\Ded.005.2013.O.WEB-DL.1080p.mkv
Формат : Matroska
Версия формата : Version 4 / Version 2
Размер файла : 3,30 Гбайт
Продолжительность : 1 ч. 28 м.
Общий поток : 5327 Кбит/сек
Название фильма : Ded.005.2013.O.WEB-DL.1080p.ELEKTRI4KA.uniongang.tv [Carl Gauß]
Дата кодирования : UTC 2015-05-28 10:25:41
Программа кодирования : mkvmerge v7.7.0 ('Six Voices') 32bit built on Feb 28 2015 23:23:00
Библиотека кодирования : libebml v1.3.1 + libmatroska v1.4.2
DURATION : 01:28:44.960000000
NUMBER_OF_FRAMES : 133124
NUMBER_OF_BYTES : 3288849989
_STATISTICS_WRITING_APP : mkvmerge v7.7.0 ('Six Voices') 32bit built on Feb 28 2015 23:23:00
_STATISTICS_WRITING_DATE_UTC : 2015-05-28 10:25:41
_STATISTICS_TAGS : BPS DURATION NUMBER_OF_FRAMES NUMBER_OF_BYTES

Видео
Идентификатор : 1
Формат : AVC
Формат/Информация : Advanced Video Codec
Профиль формата : High@L4.0
Параметр CABAC формата : Да
Параметр ReFrames формата : 4 кадра
Идентификатор кодека : V_MPEG4/ISO/AVC
Продолжительность : 1 ч. 28 м.
Битрейт : 4837 Кбит/сек
Ширина : 1920 пикселей
Высота : 1080 пикселей
Соотношение сторон : 16:9
Режим частоты кадров : Постоянный
Частота кадров : 25,000 кадров/сек
Цветовое пространство : YUV
Субдискретизация насыщенности : 4:2:0
Битовая глубина : 8 бит
Тип развёртки : Прогрессивная
Бит/(Пиксели*Кадры) : 0.093
Размер потока : 3,00 Гбайт (91%)
Заголовок : Ded.005.2013.O.WEB-DL.1080p.ELEKTRI4KA.uniongang.tv [Carl Gauß]
Язык : English
Default : Да
Forced : Нет
Основные цвета : BT.709
Характеристики трансфера : BT.709
Коэффициенты матрицы : BT.709

Аудио
Идентификатор : 2
Формат : AC-3
Формат/Информация : Audio Coding 3
Расширение режима : CM (complete main)
Параметр Endianness формата : Big
Идентификатор кодека : A_AC3
Продолжительность : 1 ч. 28 м.
Вид битрейта : Постоянный
Битрейт : 384 Кбит/сек
Каналы : 6 каналов
Расположение каналов : Front: L C R, Side: L R, LFE
Частота : 48,0 КГц
Битовая глубина : 16 бит
Метод сжатия : С потерями
Размер потока : 244 Мбайт (7%)
Заголовок : Ded.005.2013.O.WEB-DL.1080p.ELEKTRI4KA.uniongang.tv [Carl Gauß]
Язык : Russian
Default : Да
Forced : Нет

Меню
00:00:00.000 : en:Глава 1
00:05:20.000 : en:Глава 2
00:10:43.000 : en:Глава 3
00:16:18.000 : en:Глава 4
00:21:25.000 : en:Глава 5
00:27:01.000 : en:Глава 6
00:32:33.000 : en:Глава 7
00:37:35.000 : en:Глава 8
00:42:23.000 : en:Глава 9
00:47:23.000 : en:Глава 10
00:52:33.000 : en:Глава 11
00:57:29.000 : en:Глава 12
01:03:20.000 : en:Глава 13
01:09:09.000 : en:Глава 14
01:14:26.000 : en:Глава 15
01:20:16.000 : en:Глава 16
01:24:43.000 : en:Глава 17
Трейлер

Релиз группа:
Просмотров:335
Размер:3.30 ГБ (3,545,727,221 байт) » файлов: 1 [ список файлов ] [ хеш ]
Скачали:369 раз(а) [ список скачавших ]
Участники:21 раздают, 0 качают (21 участников всего)
Похожие торренты:не найдены...
Рапорт:[ пожаловаться на контент ]
Благодарность: 5 [ список ]
Чтобы оставить комментарий, войдите в систему или зарегистрируйтесь!
    
Файлы обмена предоставлены пользователями трекера, администрация не несет ответственность за их содержание. Большая просьба не заливать файлы, защищенными авторскими правами, а так же файлы с нелегальным содержанием.
Рейтинг торрент трекеров