Май
26

Во имя любви (2015) HDTVRip

Загружено: 26 мая 2015 в 16:20 от shkiper
  • 80
Техническая информация
Видео: 624x352, 1018 kbps, XviD, AVI, HDTVRip
Аудио: 128 kbps, MP3
Перевод: Не требуется
Субтитры: Отсутствуют
Звуковая дорожка: Русская
Продолжительность: 01:30:07
Рейтинг
 

Настя — человек редкой душевной щедрости. Помогая всем вокруг, она совсем беззащитна перед жестокими законами «выживания».
Счастье, казалось бы, улыбается Насте — она встречает «мужчину своей мечты» Андрея. Но хитрая подруга Света с легкостью уводит у Насти возлюбленного и разбивает ей сердце.
Однако трагическая случайность вскоре открывает Андрею глаза. Парень начинает понимать, что упустил сокровище, а под маской «доброй жены» скрывается настоящий монстр.

Релиз от:
Автор Рипа:
MI
General
Complete name : D:Изготовление рипаVo.imya.lyubvi.2015.HDTVRip.by Шкипер.avi
Format : AVI
Format/Info : Audio Video Interleave
File size : 745 MiB
Duration : 1h 30mn
Overall bit rate : 1 157 Kbps
Writing application : VirtualDubMod 1.5.10.3 | www.virtualdub-fr.org || (build 2550/release)
Writing library : VirtualDubMod build 2550/release

Video
ID : 0
Format : MPEG-4 Visual
Format profile : Advanced Simple@L5
Format settings, BVOP : 1
Format settings, QPel : No
Format settings, GMC : No warppoints
Format settings, Matrix : Default (MPEG)
Codec ID : XVID
Codec ID/Hint : XviD
Duration : 1h 30mn
Bit rate : 1 019 Kbps
Width : 624 pixels
Height : 352 pixels
Display aspect ratio : 16:9
Frame rate : 25.000 fps
Color space : YUV
Chroma subsampling : 4:2:0
Bit depth : 8 bits
Scan type : Progressive
Compression mode : Lossy
Bits/(Pixel*Frame) : 0.186
Stream size : 657 MiB (88%)
Writing library : XviD 73

Audio
ID : 1
Format : MPEG Audio
Format version : Version 1
Format profile : Layer 3
Mode : Joint stereo
Mode extension : MS Stereo
Codec ID : 55
Codec ID/Hint : MP3
Duration : 1h 30mn
Bit rate mode : Constant
Bit rate : 128 Kbps
Channel(s) : 2 channels
Sampling rate : 48.0 KHz
Compression mode : Lossy
Stream size : 82.5 MiB (11%)
Alignment : Aligned on interleaves
Interleave, duration : 40 ms (1.00 video frame)
Interleave, preload duration : 504 ms
Writing library : LAME3.99r
Encoding settings : -m j -V 4 -q 2 -lowpass 17 -b 128

Релиз группа:
Просмотров:333
Размер:745.49 МБ (781,707,264 байт) » файлов: 1 [ список файлов ] [ хеш ]
Скачали:1631 раз(а) [ список скачавших ]
Участники:76 раздают, 0 качают (76 участников всего) [ список участников ]
Похожие торренты:не найдены...
Рапорт:[ пожаловаться на контент ]
Благодарность: 5 [ список ]
Чтобы оставить комментарий, войдите в систему или зарегистрируйтесь!
    
Файлы обмена предоставлены пользователями трекера, администрация не несет ответственность за их содержание. Большая просьба не заливать файлы, защищенными авторскими правами, а так же файлы с нелегальным содержанием.
Рейтинг торрент трекеров