Май
17

Оскорбление / The Offence (1972) HDRip

Загружено: 17 мая 2015 в 08:52 от shkiper
  • 80
Техническая информация
Видео: 608x368, 760 kbps, XviD, AVI, HDRip
Аудио: 128 kbps, MP3
Перевод: Профессиональный (дублирование)
Субтитры: Отсутствуют
Звуковая дорожка: Русская
Продолжительность: 01:53
Рейтинг
 

За 20 лет службы в полиции детектив Джонсон повидал много такого, от чего может расстроиться психика: убийства, грабежи, изнасилования и еще бог знает что. Однажды по время очередного допроса у него возникает нервный срыв и он руками забивает до смерти подозреваемого в растлении малолетних.
Позже, придя в себя и проанализировав происшедшее, Джонсон осознает, что и сам не слишком отличается от своих «клиентов». Теперь он понимает, что жить, как прежде он уже не сможет…

Релиз от:
Автор Рипа:
MI
Общее
Полное имя : D:Изготовление рипаОскорбление.1972.HDRip by Шкипер.avi
Формат : AVI
Формат/Информация : Audio Video Interleave
Размер файла : 746 Мбайт
Продолжительность : 1 ч. 56 м.
Общий поток : 898 Кбит/сек
Программа кодирования : VirtualDubModRus 1.5.10.2 (build 2542/release)
Библиотека кодирования : VirtualDubMod build 2542/release

Видео
Идентификатор : 0
Формат : MPEG-4 Visual
Профиль формата : Advanced Simple@L5
Параметр BVOP формата : 1
Параметр QPel формата : Нет
Параметр GMC формата : Без точки перехода
Параметр матрицы формата : Default (MPEG)
Идентификатор кодека : XVID
Идентификатор кодека/Подсказка : XviD
Продолжительность : 1 ч. 56 м.
Битрейт : 760 Кбит/сек
Ширина : 608 пикселей
Высота : 368 пикселей
Соотношение сторон : 1,652
Частота кадров : 23,976 кадра/сек
Цветовое пространство : YUV
Субдискретизация насыщенности : 4:2:0
Битовая глубина : 8 бит
Тип развёртки : Прогрессивная
Метод сжатия : С потерями
Бит/(Пиксели*Кадры) : 0.142
Размер потока : 632 Мбайт (85%)
Библиотека кодирования : XviD 73

Аудио
Идентификатор : 1
Формат : MPEG Audio
Версия формата : Version 1
Профиль формата : Layer 3
Режим : Joint stereo
Расширение режима : MS Stereo
Идентификатор кодека : 55
Идентификатор кодека/Подсказка : MP3
Продолжительность : 1 ч. 56 м.
Вид битрейта : Постоянный
Битрейт : 128 Кбит/сек
Каналы : 2 канала
Частота : 48,0 КГц
Метод сжатия : С потерями
Размер потока : 106 Мбайт (14%)
Выравнивание : Соединение по промежуткам
Продолжительность промежутка : 42 мс. (1,00 видеокадр)
Время предзагрузки промежутка : 504 мс.
Библиотека кодирования : LAME3.99r
Настройки программы : -m j -V 4 -q 2 -lowpass 17 -b 128

Релиз группа:
Просмотров:285
Размер:746.45 МБ (782,708,736 байт) » файлов: 1 [ список файлов ] [ хеш ]
Скачали:5 раз(а) [ список скачавших ]
Участники:? раздают, 0 качают (? участников всего)
Похожие торренты:не найдены...
Рапорт:[ пожаловаться на контент ]
Благодарность: 0 еще никто не сказал спасибо
Чтобы оставить комментарий, войдите в систему или зарегистрируйтесь!
    
Файлы обмена предоставлены пользователями трекера, администрация не несет ответственность за их содержание. Большая просьба не заливать файлы, защищенными авторскими правами, а так же файлы с нелегальным содержанием.
Рейтинг торрент трекеров