Май
11

Любимые женщины Казановы (1-2 из 2) (2014) HDTVRip

Загружено: 11 мая 2015 в 21:00 от shkiper
  • 80
Техническая информация
Видео: 720х400, 2050 kbps, XviD, AVI, HDTVRip
Аудио: 192 kbps, AC3
Перевод: Не требуется
Субтитры: Отсутствуют
Звуковая дорожка: Русская
Продолжительность: 2 х 01:30
Рейтинг
 

Иван - единственный мужчина в семье. Он окружен заботами мамы, бабушки и двух сестер. Женщины не дают ему "продохнуть", мучая советами по поводу личной жизни. Однажды молодой человек заключает пари с одной безбашенной девицей, представляя ее своей семье в качестве будущей жены. Иван делает это намеренно, чтобы когда он приведет в дом настоящую любимую девушку, семья приняла бы ее радостно. Родственники в недоумении и не могут смириться с взбалмошной невесткой, но постепенно девушка вносит изменения в размеренный уклад семьи...
MI
General
Complete name : D:\Торрент\Любимые женщины Казановы\Lyubimye.zhenshchiny.Kazanovy.2014.HDTVRip.RG.Russkie.serialy.&.Files-x\Lyubimye.zhenshchiny.Kazanovy.01.seriya.2014.HDTVRip.RG.Russkie.serialy.&.Files-x.avi
Format : AVI
Format/Info : Audio Video Interleave
File size : 1.37 GiB
Duration : 1h 29mn
Overall bit rate : 2 186 Kbps
Writing application : VirtualDubMod 1.5.10.3 | www.virtualdub-fr.org || (build 2550/release)
Writing library : VirtualDubMod build 2550/release

Video
ID : 0
Format : MPEG-4 Visual
Format profile : Advanced Simple@L5
Format settings, BVOP : Yes
Format settings, QPel : No
Format settings, GMC : No warppoints
Format settings, Matrix : Default (H.263)
Codec ID : XVID
Codec ID/Hint : XviD
Duration : 1h 29mn
Bit rate : 1 985 Kbps
Width : 720 pixels
Height : 400 pixels
Display aspect ratio : 16:9
Frame rate : 25.000 fps
Color space : YUV
Chroma subsampling : 4:2:0
Bit depth : 8 bits
Scan type : Progressive
Compression mode : Lossy
Bits/(Pixel*Frame) : 0.276
Stream size : 1.24 GiB (91%)
Writing library : XviD 1.2.1 (UTC 2008-12-04)

Audio
ID : 1
Format : AC-3
Format/Info : Audio Coding 3
Mode extension : CM (complete main)
Codec ID : 2000
Duration : 1h 29mn
Bit rate mode : Constant
Bit rate : 192 Kbps
Channel(s) : 2 channels
Channel positions : Front: L R
Sampling rate : 48.0 KHz
Bit depth : 16 bits
Compression mode : Lossy
Stream size : 123 MiB (9%)
Alignment : Split accross interleaves
Interleave, duration : 40 ms (1.00 video frame)
Interleave, preload duration : 500 ms

Релиз группа:
Просмотров:421
Размер:2.73 ГБ (2,934,790,144 байт) » файлов: 2 [ список файлов ] [ хеш ]
Скачали:390 раз(а) [ список скачавших ]
Участники:3 раздают, 0 качают (3 участников всего)
Похожие торренты:не найдены...
Рапорт:[ пожаловаться на контент ]
Благодарность: 4 [ список ]
Чтобы оставить комментарий, войдите в систему или зарегистрируйтесь!
    
Файлы обмена предоставлены пользователями трекера, администрация не несет ответственность за их содержание. Большая просьба не заливать файлы, защищенными авторскими правами, а так же файлы с нелегальным содержанием.
Рейтинг торрент трекеров