Май
10

Отец поневоле (2013) HDTVRip

Загружено: 10 мая 2015 в 17:08 от shkiper
  • 80
Техническая информация
Видео: 624x336, 1020 kbps, XviD, AVI, HDTVRip
Аудио: 128 kbps, MP3
Перевод: Не требуется
Субтитры: Отсутствуют
Звуковая дорожка: Русская
Продолжительность: 01:29:55
Рейтинг
 

В России десять миллионов детей растут без отца. Кто-то – долгие годы таит обиду, а кто-то – больше всего на свете мечтает о встрече. По-разному ведут себя и матери брошенных детей. Одни пытаются добиться признания отцовства через суд. Другие, наоборот, стараются вычеркнуть из жизни отца своего ребенка. Большинство самих мужчин - не торопится признавать свое отцовство. Но и есть и такие, которые признают свои ошибки. И своих детей.

Релиз от:
Автор Рипа:
MI
General
Complete name : D:ТоррентМОИ РИПЫОтец по неволеОтец_по_неволе.2013.HDTVRip.от Шкипер.avi
Format : AVI
Format/Info : Audio Video Interleave
File size : 745 MiB
Duration : 1h 29mn
Overall bit rate : 1 159 Kbps
Writing application : VirtualDubMod 1.5.10.3 | www.virtualdub-fr.org || (build 2550/release)
Writing library : VirtualDubMod build 2550/release

Video
ID : 0
Format : MPEG-4 Visual
Format profile : Advanced Simple@L5
Format settings, BVOP : Yes
Format settings, QPel : No
Format settings, GMC : No warppoints
Format settings, Matrix : Default (MPEG)
Codec ID : XVID
Codec ID/Hint : XviD
Duration : 1h 29mn
Bit rate : 1 021 Kbps
Width : 624 pixels
Height : 336 pixels
Display aspect ratio : 1.857
Frame rate : 25.000 fps
Color space : YUV
Chroma subsampling : 4:2:0
Bit depth : 8 bits
Scan type : Progressive
Compression mode : Lossy
Bits/(Pixel*Frame) : 0.195
Stream size : 657 MiB (88%)
Writing library : XviD 73

Audio
ID : 1
Format : MPEG Audio
Format version : Version 1
Format profile : Layer 3
Mode : Joint stereo
Codec ID : 55
Codec ID/Hint : MP3
Duration : 1h 29mn
Bit rate mode : Constant
Bit rate : 128 Kbps
Channel(s) : 2 channels
Sampling rate : 48.0 KHz
Compression mode : Lossy
Stream size : 82.3 MiB (11%)
Alignment : Aligned on interleaves
Interleave, duration : 40 ms (1.00 video frame)
Interleave, preload duration : 504 ms
Writing library : LAME3.99r
Encoding settings : -m j -V 4 -q 2 -lowpass 17 -b 128

Релиз группа:
Просмотров:294
Размер:745.27 МБ (781,473,792 байт) » файлов: 1 [ список файлов ] [ хеш ]
Скачали:182 раз(а) [ список скачавших ]
Участники:8 раздают, 0 качают (8 участников всего)
Похожие торренты:не найдены...
Рапорт:[ пожаловаться на контент ]
Благодарность: 1 [ список ]
Чтобы оставить комментарий, войдите в систему или зарегистрируйтесь!
    
Файлы обмена предоставлены пользователями трекера, администрация не несет ответственность за их содержание. Большая просьба не заливать файлы, защищенными авторскими правами, а так же файлы с нелегальным содержанием.
Рейтинг торрент трекеров