Май
10

Истребители - 2. Последний бой (1-12 из 12) (2015) WEB-DLRip

Загружено: 10 мая 2015 в 18:48 от VOLKvolk
  • 80
Техническая информация
Видео: 1024x576, 2350 kbps, H.264, MKV, WEB-DLRip
Аудио: 192 kbps, AC3
Перевод: Не требуется
Субтитры: Отсутствуют
Звуковая дорожка: Русская
Продолжительность: 12 x ~00:52
Рейтинг
 

Продолжение грандиозной военной драмы "Истребители" о подвиге летчиков военной авиации времен Великой Отечественной войны, о дружбе, скрепленной кровью, мужестве и настоящей любви. В центре повествования - смешанный летный полк, в котором служат не только мужчины, но и отважные летчики-женщины. Летчика Илью Бестужева вызывают в главный штаб, где повышают в звании до подполковника и приказывают сформировать собственный полк на базе новейших истребителей ЯК-3. Он отправляется в Москву и встречается со своим бывшим ведомым, ныне героем Советского Союза – летчиком Леонидом Шугаевым. Леонид знакомит его со своей девушкой – певицей Аллой Лазуркевич и ее подругой – примой Большого театра Лидой Серебрянской. Лида с первого взгляда влюбляется в Бестужева, но он не может ответить на ее чувства. Ведь он верит, что однажды сможет разыскать свою давнюю любовь – летчицу Евгению Дементьеву, с которой потерял связь на фронте. Бестужев отправляется на передовую и после обустройства на новом месте принимает пополнение – пять девушек. Между тем в воздухе идут тяжелые бои, советские летчики никак не могут преодолеть загадочную немецкую оборону, которая мешает продвижению нашей армии. Бестужеву предстоит сложнейшая задача – любой ценой разгадать секретный план немцев под названием "Восточная шкатулка"...
MI
Общее
Уникальный идентификатор : 206220051178981175925919982762966841353 (0x9B248983F6E25DB5BB5676EFE2D2F809)
Полное имя : D:ЗагрузкиIstrebiteli-2.Poslednij.Boj.2015.x264.WEB-DLRip.(AVC).ExKinoRayIstrebiteli-2.Poslednij.Boj.(01.serija.).2015.x264.WEB-DLRip.(AVC).ExKinoRay.mkv
Формат : Matroska
Версия формата : Version 2
Размер файла : 951 Мбайт
Продолжительность : 52 м.
Общий поток : 2543 Кбит/сек
Название фильма : Истребители 2.Последний бой.(1.серия).2015.Rip by: ollan
Дата кодирования : UTC 2015-05-04 16:07:51
Программа кодирования : mkvmerge v5.6.0 ('Kenya Kane') built on May 27 2012 16:44:04
Библиотека кодирования : libebml v1.2.3 + libmatroska v1.3.0

Видео
Идентификатор : 1
Формат : AVC
Формат/Информация : Advanced Video Codec
Профиль формата : High@L4.1
Параметр CABAC формата : Да
Параметр ReFrames формата : 9 кадров
Идентификатор кодека : V_MPEG4/ISO/AVC
Продолжительность : 52 м.
Битрейт : 2350 Кбит/сек
Ширина : 1024 пикселя
Высота : 576 пикселей
Соотношение сторон : 16:9
Режим частоты кадров : Постоянный
Частота кадров : 25,000 кадров/сек
Цветовое пространство : YUV
Субдискретизация насыщенности : 4:2:0
Битовая глубина : 8 бит
Тип развёртки : Прогрессивная
Бит/(Пиксели*Кадры) : 0.159
Размер потока : 860 Мбайт (90%)
Библиотека кодирования : x264 core 125 r2200 999b753
Настройки программы : cabac=1 / ref=9 / deblock=1:-3:-3 / analyse=0x3:0x133 / me=umh / subme=11 / psy=1 / psy_rd=1.00:0.10 / mixed_ref=1 / me_range=32 / chroma_me=1 / trellis=2 / 8x8dct=1 / cqm=0 / deadzone=21,11 / fast_pskip=0 / chroma_qp_offset=-3 / threads=12 / lookahead_threads=2 / sliced_threads=0 / nr=0 / decimate=0 / interlaced=0 / bluray_compat=0 / constrained_intra=0 / bframes=9 / b_pyramid=2 / b_adapt=2 / b_bias=0 / direct=3 / weightb=1 / open_gop=0 / weightp=2 / keyint=250 / keyint_min=25 / scenecut=40 / intra_refresh=0 / rc_lookahead=60 / rc=2pass / mbtree=1 / bitrate=2350 / ratetol=1.0 / qcomp=0.60 / qpmin=0 / qpmax=69 / qpstep=4 / cplxblur=20.0 / qblur=0.5 / ip_ratio=1.40 / aq=1:1.00
Язык : Russian
Default : Да
Forced : Нет

Аудио
Идентификатор : 2
Формат : AC-3
Формат/Информация : Audio Coding 3
Расширение режима : CM (complete main)
Параметр Endianness формата : Big
Идентификатор кодека : A_AC3
Продолжительность : 52 м.
Вид битрейта : Постоянный
Битрейт : 192 Кбит/сек
Каналы : 2 канала
Расположение каналов : Front: L R
Частота : 48,0 КГц
Битовая глубина : 16 бит
Метод сжатия : С потерями
Размер потока : 71,8 Мбайт (8%)
Язык : Russian
Default : Да
Forced : Нет

Просмотров:479
Размер:11.54 ГБ (12,387,237,848 байт) » файлов: 12 [ список файлов ] [ хеш ]
Скачали:113 раз(а) [ список скачавших ]
Участники:11 раздают, 0 качают (11 участников всего)
Похожие торренты:не найдены...
Рапорт:[ пожаловаться на контент ]
Благодарность: 11 [ список ]
Чтобы оставить комментарий, войдите в систему или зарегистрируйтесь!
    
Файлы обмена предоставлены пользователями трекера, администрация не несет ответственность за их содержание. Большая просьба не заливать файлы, защищенными авторскими правами, а так же файлы с нелегальным содержанием.
Рейтинг торрент трекеров