Апр
27

Крутящий момент / Torque (2004) HDRip

Загружено: 27 апреля 2015 в 16:15 от shkiper
  • 0
Техническая информация
Видео: 640x272, 1111 kbps, XviD, AVI, HDRip
Аудио: 128 kbps, MP3
Перевод: Профессиональный (дублирование)
Субтитры: Отсутствуют
Звуковая дорожка: Русская
Продолжительность: 01:23
Рейтинг
 

Вернувшись в родной город к любимой девушке, байкер Кери Форд оказывается в западне: против него фабрикуют уголовное дело об убийстве, которого он никогда не совершал. Форд становится мишенью агрессивных выпадов со стороны брата жертвы, ослепленного идеей отмщения, и объектом преследования агентов ФБР. Кери Форд во что бы то ни стало намерен восстановить свое доброе имя и выследить преступников…

Рип от:
MI
Общее
Полное имя : D:ТоррентМОИ РИПЫКрутящий моментKrutjashiy.moment.2004.HDRip by Шкипер.avi
Формат : AVI
Формат/Информация : Audio Video Interleave
Размер файла : 748 Мбайт
Продолжительность : 1 ч. 23 м.
Общий поток : 1249 Кбит/сек
Программа кодирования : VirtualDubMod 1.5.10.3 | www.virtualdub-fr.org || (build 2550/release)
Библиотека кодирования : VirtualDubMod build 2550/release

Видео
Идентификатор : 0
Формат : MPEG-4 Visual
Профиль формата : Advanced Simple@L5
Параметр BVOP формата : 1
Параметр QPel формата : Нет
Параметр GMC формата : Без точки перехода
Параметр матрицы формата : Default (MPEG)
Идентификатор кодека : XVID
Идентификатор кодека/Подсказка : XviD
Продолжительность : 1 ч. 23 м.
Битрейт : 1112 Кбит/сек
Ширина : 640 пикселей
Высота : 272 пикселя
Соотношение сторон : 2,40:1
Частота кадров : 23,976 кадра/сек
Цветовое пространство : YUV
Субдискретизация насыщенности : 4:2:0
Битовая глубина : 8 бит
Тип развёртки : Прогрессивная
Метод сжатия : С потерями
Бит/(Пиксели*Кадры) : 0.266
Размер потока : 665 Мбайт (89%)
Библиотека кодирования : XviD 73

Аудио
Идентификатор : 1
Формат : MPEG Audio
Версия формата : Version 1
Профиль формата : Layer 3
Режим : Joint stereo
Идентификатор кодека : 55
Идентификатор кодека/Подсказка : MP3
Продолжительность : 1 ч. 23 м.
Вид битрейта : Постоянный
Битрейт : 128 Кбит/сек
Каналы : 2 канала
Частота : 48,0 КГц
Метод сжатия : С потерями
Размер потока : 76,6 Мбайт (10%)
Выравнивание : Соединение по промежуткам
Продолжительность промежутка : 42 мс. (1,00 видеокадр)
Время предзагрузки промежутка : 504 мс.
Библиотека кодирования : LAME3.99r
Настройки программы : -m j -V 4 -q 2 -lowpass 17 -b 128

Релиз группа:
Просмотров:276
Размер:747.62 МБ (783,937,536 байт) » файлов: 1 [ список файлов ] [ хеш ]
Скачали:32 раз(а) [ список скачавших ]
Участники:3 раздают, 0 качают (3 участников всего)
Похожие торренты:не найдены...
Рапорт:[ пожаловаться на контент ]
Благодарность: 3 [ список ]
Чтобы оставить комментарий, войдите в систему или зарегистрируйтесь!
    
Файлы обмена предоставлены пользователями трекера, администрация не несет ответственность за их содержание. Большая просьба не заливать файлы, защищенными авторскими правами, а так же файлы с нелегальным содержанием.
Рейтинг торрент трекеров