Апр
22

Ты не ты / You're Not You (2014) HDRip

Загружено: 22 апреля 2015 в 13:02 от shkiper
  • 80
Техническая информация
Видео: 624x336, 882 kbps, XviD, AVI, HDRip
Аудио: 128 kbps, MP3
Перевод: Профессиональный (многоголосый)
Субтитры: Отсутствуют
Звуковая дорожка: Русская
Продолжительность: 01:42:21
Рейтинг
 

Красивая и талантливая Кэйт всегда была королевой положения. Она умна, у нее крепкая семья и непревзойденный дар игры на фортепиано. Девушка с детства обожает музыку, она стала частью ее души. Как гром среди ясного неба, в устоявшуюся жизнь Кэйт врывается страшное заболевание - прогрессирующий амиотрофический склероз. Супруг очень обеспокоен происходящим, он понимает, что не может оставить жену саму дома, поэтому принимает решение нанять ей сиделку. На кастинге помощниц, выбор Кейт пал на молоденькую студентку Бек. Девушка наивна и энергична, она выглядит полной противоположностью главной героини, которая видит в ней силу и возможность реализовать свои рухнувшие мечты. Она отлично справляется с возложенной миссией и становится хорошей поддержкой больной. Кейт делится с ней мудростью, а Бек – вносит свет и бодрость в ее угасающую жизнь.

Рип от:
MI
Общее
Полное имя : D:Изготовление рипаTy.ne.ty.2014.P.HDRip.от Шкипер.avi
Формат : AVI
Формат/Информация : Audio Video Interleave
Размер файла : 746 Мбайт
Продолжительность : 1 ч. 42 м.
Общий поток : 1019 Кбит/сек
Программа кодирования : VirtualDubMod 1.5.10.3 | www.virtualdub-fr.org || (build 2550/release)
Библиотека кодирования : VirtualDubMod build 2550/release

Видео
Идентификатор : 0
Формат : MPEG-4 Visual
Профиль формата : Advanced Simple@L5
Параметр BVOP формата : 1
Параметр QPel формата : Нет
Параметр GMC формата : Без точки перехода
Параметр матрицы формата : Default (MPEG)
Идентификатор кодека : XVID
Идентификатор кодека/Подсказка : XviD
Продолжительность : 1 ч. 42 м.
Битрейт : 882 Кбит/сек
Ширина : 624 пикселя
Высота : 336 пикселей
Соотношение сторон : 1,85:1
Частота кадров : 24,000 кадра/сек
Цветовое пространство : YUV
Субдискретизация насыщенности : 4:2:0
Битовая глубина : 8 бит
Тип развёртки : Прогрессивная
Метод сжатия : С потерями
Бит/(Пиксели*Кадры) : 0.175
Размер потока : 645 Мбайт (87%)
Библиотека кодирования : XviD 73

Аудио
Идентификатор : 1
Формат : MPEG Audio
Версия формата : Version 1
Профиль формата : Layer 3
Режим : Joint stereo
Расширение режима : MS Stereo
Идентификатор кодека : 55
Идентификатор кодека/Подсказка : MP3
Продолжительность : 1 ч. 42 м.
Вид битрейта : Постоянный
Битрейт : 128 Кбит/сек
Каналы : 2 канала
Частота : 48,0 КГц
Метод сжатия : С потерями
Размер потока : 93,7 Мбайт (13%)
Выравнивание : Соединение по промежуткам
Продолжительность промежутка : 42 мс. (1,00 видеокадр)
Время предзагрузки промежутка : 504 мс.
Библиотека кодирования : LAME3.99r
Настройки программы : -m j -V 4 -q 2 -lowpass 17 -b 128

Релиз группа:
Просмотров:251
Размер:745.91 МБ (782,139,392 байт) » файлов: 1 [ список файлов ] [ хеш ]
Скачали:5 раз(а) [ список скачавших ]
Участники:4 раздают, 0 качают (4 участников всего)
Похожие торренты:не найдены...
Рапорт:[ пожаловаться на контент ]
Благодарность: 2 [ список ]
Чтобы оставить комментарий, войдите в систему или зарегистрируйтесь!
    
Файлы обмена предоставлены пользователями трекера, администрация не несет ответственность за их содержание. Большая просьба не заливать файлы, защищенными авторскими правами, а так же файлы с нелегальным содержанием.
Рейтинг торрент трекеров