Апр
14

Феникс / Phoenix (2014) BDRip | 1080p

Загружено: 14 апреля 2015 в 09:40 от Orion
  • 80
Техническая информация
Видео: 1920x800, 8805 kbps, AVC, MKV, BDRip
Аудио: 384 kbps, AC3
Перевод: Любительский (двухголосый)
Субтитры: Отсутствуют
Звуковая дорожка: Русская + Немецкая
Продолжительность: 01:38
Рейтинг
 

Нелли Ленц, жертва Холокоста, которой удалось выжить в концлагере. Она ранена, у неё сильно искалечено лицо. Сотрудница Еврейского агентства Лене Винтер помогает Нелли добраться до Берлина, где ей сделали пластическую операцию. Поправившись после операции, Нелли начинает искать своего мужа, Йоханнса. Когда она наконец нашла его, Йоханнес не узнал свою жену, которую считает погибшей. Тем не менее, он признает, что эта незнакомая ему женщина похожа на его «покойную» жену. И тогда Йоханнес делает деловое предложение Нелли — она должна будет изображать его жену, чтобы получить состояние, которое ей досталось от семьи. Нелли соглашается…
Media Info:
Общее
Уникальный идентификатор : 198083470529378133735250912031558794928 (0x95057D1DF0209C1A887D2C2EB22AFEB0)
Полное имя : D:\Films\Phoenix.2014.1080p.BDRip.mkv
Формат : Matroska
Версия формата : Version 2
Размер файла : 6,82 Гбайт
Продолжительность : 1 ч. 38 м.
Общий поток : 9959 Кбит/сек
Дата кодирования : UTC 2015-04-14 01:30:45
Программа кодирования : mkvmerge v5.2.0 ('I can't explain') built on Dec 18 2011 18:12:03
Библиотека кодирования : libebml v1.2.3 + libmatroska v1.3.0

Видео
Идентификатор : 1
Формат : AVC
Формат/Информация : Advanced Video Codec
Профиль формата : High@L4.1
Параметр CABAC формата : Да
Параметр ReFrames формата : 5 кадров
Идентификатор кодека : V_MPEG4/ISO/AVC
Продолжительность : 1 ч. 38 м.
Битрейт : 8805 Кбит/сек
Ширина : 1920 пикселей
Высота : 800 пикселей
Соотношение сторон : 2,40:1
Режим частоты кадров : Постоянный
Частота кадров : 24,000 кадра/сек
Цветовое пространство : YUV
Субдискретизация насыщенности : 4:2:0
Битовая глубина : 8 бит
Тип развёртки : Прогрессивная
Бит/(Пиксели*Кадры) : 0.239
Размер потока : 5,89 Гбайт (86%)
Библиотека кодирования : x264 core 146 r2538 121396c
Настройки программы : cabac=1 / ref=5 / deblock=1:-2:-2 / analyse=0x3:0x113 / me=umh / subme=8 / psy=1 / psy_rd=1.00:0.15 / mixed_ref=1 / me_range=16 / chroma_me=1 / trellis=1 / 8x8dct=1 / cqm=0 / deadzone=21,11 / fast_pskip=0 / chroma_qp_offset=-3 / threads=6 / lookahead_threads=1 / sliced_threads=0 / nr=0 / decimate=1 / interlaced=0 / bluray_compat=0 / constrained_intra=0 / bframes=3 / b_pyramid=2 / b_adapt=2 / b_bias=0 / direct=3 / weightb=1 / open_gop=0 / weightp=2 / keyint=250 / keyint_min=24 / scenecut=40 / intra_refresh=0 / rc_lookahead=50 / rc=2pass / mbtree=1 / bitrate=8805 / ratetol=1.0 / qcomp=0.60 / qpmin=0 / qpmax=69 / qpstep=4 / cplxblur=20.0 / qblur=0.5 / ip_ratio=1.40 / aq=1:1.00
Язык : English
Default : Да
Forced : Нет

Аудио #1
Идентификатор : 2
Формат : AC-3
Формат/Информация : Audio Coding 3
Расширение режима : CM (complete main)
Параметр Endianness формата : Big
Идентификатор кодека : A_AC3
Продолжительность : 1 ч. 38 м.
Вид битрейта : Постоянный
Битрейт : 384 Кбит/сек
Каналы : 6 каналов
Расположение каналов : Front: L C R, Side: L R, LFE
Частота : 48,0 КГц
Битовая глубина : 16 бит
Метод сжатия : С потерями
Размер потока : 269 Мбайт (4%)
Заголовок : DVO, Студия Пиратского Дубляжа
Язык : Russian
Default : Да
Forced : Нет

Аудио #2
Идентификатор : 3
Формат : DTS
Формат/Информация : Digital Theater Systems
Режим : 16
Параметр Endianness формата : Big
Идентификатор кодека : A_DTS
Продолжительность : 1 ч. 38 м.
Вид битрейта : Постоянный
Битрейт : 768 Кбит/сек
Каналы : 6 каналов
Расположение каналов : Front: L C R, Side: L R, LFE
Частота : 48,0 КГц
Битовая глубина : 24 бит
Метод сжатия : С потерями
Размер потока : 538 Мбайт (8%)
Язык : German
Default : Нет
Forced : Нет

Текст #1
Идентификатор : 4
Формат : UTF-8
Идентификатор кодека : S_TEXT/UTF8
Идентификатор кодека/Информация : UTF-8 Plain Text
Язык : German
Default : Нет
Forced : Нет

Текст #2
Идентификатор : 5
Формат : UTF-8
Идентификатор кодека : S_TEXT/UTF8
Идентификатор кодека/Информация : UTF-8 Plain Text
Язык : English
Default : Нет
Forced : Нет

Меню
00:00:00.000 : en:00:00:00.000
00:03:23.125 : en:00:03:23.125
00:09:37.708 : en:00:09:37.708
00:16:18.417 : en:00:16:18.417
00:22:07.375 : en:00:22:07.375
00:29:55.458 : en:00:29:55.458
00:34:16.667 : en:00:34:16.667
00:38:39.792 : en:00:38:39.792
00:41:18.417 : en:00:41:18.417
00:48:23.583 : en:00:48:23.583
00:51:46.042 : en:00:51:46.042
00:57:44.208 : en:00:57:44.208
01:05:30.583 : en:01:05:30.583
01:07:29.792 : en:01:07:29.792
01:10:35.208 : en:01:10:35.208
01:19:47.958 : en:01:19:47.958
01:25:33.167 : en:01:25:33.167
01:34:32.208 : en:01:34:32.208
Дополнительная информация

Релиз группа:
Просмотров:348
Размер:6.82 ГБ (7,320,369,984 байт) » файлов: 1 [ список файлов ] [ хеш ]
Скачали:6 раз(а) [ список скачавших ]
Участники:? раздают, 0 качают (? участников всего)
Похожие торренты:не найдены...
Рапорт:[ пожаловаться на контент ]
Благодарность: 2 [ список ]
Чтобы оставить комментарий, войдите в систему или зарегистрируйтесь!
    
Файлы обмена предоставлены пользователями трекера, администрация не несет ответственность за их содержание. Большая просьба не заливать файлы, защищенными авторскими правами, а так же файлы с нелегальным содержанием.
Рейтинг торрент трекеров