Апр
04

Десант (2000) DVD5

Загружено: 04 апреля 2015 в 18:25 от shkiper
  • 80
Техническая информация
Видео: 720x576, 5939 kbps, MPEG2, DVD Video, DVD5
Аудио: 256 kbps, AC3
Перевод: Не требуется
Субтитры: Отсутствуют
Звуковая дорожка: Русская
Продолжительность: 01:34:53
Рейтинг
 

«Несокрушимое братство голубых беретов»
Молодые парни из разных социальных слоёв, у некоторых из которых криминальное прошлое, призываются в воздушно десантные войска. Сержант Алексей Буров (Алексей Серебряков) назначен командиром отделения взвода новобранцев. Именно он прививает неопытным "сынкам" навыки рукопашного боя, взаимовыручки и армейской смекалки в проводимых учениях. И вот настал день боевого крещения. Подразделение десантников получает приказ помочь пограничникам обезвредить крупную банду наркоторговцев, пытающихся нелегально пересечь границу...
MediaInfo
General
Format : MPEG-PS
File size : 4.19 GiB
Duration : 1h 34mn
Overall bit rate mode : Variable
Overall bit rate : 6 321 Kbps

Video
ID : 224 (0xE0)
Format : MPEG Video
Format version : Version 2
Format profile : Main@Main
Format settings, BVOP : Yes
Format settings, Matrix : Custom
Format settings, GOP : M=3, N=12
Format settings, picture struc : Frame
Duration : 1h 34mn
Bit rate mode : Variable
Bit rate : 5 939 Kbps
Maximum bit rate : 6 000 Kbps
Width : 720 pixels
Height : 576 pixels
Display aspect ratio : 4:3
Frame rate : 25.000 fps
Standard : PAL
Color space : YUV
Chroma subsampling : 4:2:0
Bit depth : 8 bits
Scan type : Interlaced
Scan order : Top Field First
Compression mode : Lossy
Bits/(Pixel*Frame) : 0.573
Time code of first frame : 00:00:00:00
Time code source : Group of pictures header
GOP, Open/Closed : Closed
Stream size : 3.94 GiB (94%)
Matrix coefficients : BT.601

Audio
ID : 189 (0xBD)-128 (0x80)
Format : AC-3
Format/Info : Audio Coding 3
Mode extension : CM (complete main)
Format settings, Endianness : Big
Muxing mode : DVD-Video
Duration : 1h 34mn
Bit rate mode : Constant
Bit rate : 256 Kbps
Channel(s) : 2 channels
Channel positions : Front: L R
Sampling rate : 48.0 KHz
Bit depth : 16 bits
Compression mode : Lossy
Stream size : 174 MiB (4%)

Menu

Релиз группа:
Просмотров:408
Размер:4.27 ГБ (4,581,629,952 байт) » файлов: 13 [ список файлов ] [ хеш ]
Скачали:20 раз(а) [ список скачавших ]
Участники:4 раздают, 0 качают (4 участников всего)
Похожие торренты:не найдены...
Рапорт:[ пожаловаться на контент ]
Благодарность: 4 [ список ]
Чтобы оставить комментарий, войдите в систему или зарегистрируйтесь!
    
Файлы обмена предоставлены пользователями трекера, администрация не несет ответственность за их содержание. Большая просьба не заливать файлы, защищенными авторскими правами, а так же файлы с нелегальным содержанием.
Рейтинг торрент трекеров