Мар
31

Район 37 / Outpost 37 (2014) HDRip

Загружено: 31 марта 2015 в 08:03 от shkiper
  • 80
Техническая информация
Видео: 624x336, 996 kbps, XviD, AVI, HDRip
Аудио: 128 kbps, MP3
Перевод: Профессиональный (многоголосый)
Субтитры: Отсутствуют
Звуковая дорожка: Русская
Продолжительность: 01:31:49
Рейтинг
 

Исследуя события - инопланетного вторжения, команда документалистов следует за элитным подразделением морских пехотинцев...

Доп.информация: Исходник рипа BDRip 720p
Рип от:
MI
Общее
Полное имя : D:Рипы изготовлениеRayon.37.2014.P.HDRip.от Шкипер.avi
Формат : AVI
Формат/Информация : Audio Video Interleave
Размер файла : 745 Мбайт
Продолжительность : 1 ч. 31 м.
Общий поток : 1134 Кбит/сек
Программа кодирования : VirtualDubMod 1.5.10.3 | www.virtualdub-fr.org || (build 2550/release)
Библиотека кодирования : VirtualDubMod build 2550/release

Видео
Идентификатор : 0
Формат : MPEG-4 Visual
Профиль формата : Advanced Simple@L5
Параметр BVOP формата : 1
Параметр QPel формата : Нет
Параметр GMC формата : Без точки перехода
Параметр матрицы формата : Default (MPEG)
Идентификатор кодека : XVID
Идентификатор кодека/Подсказка : XviD
Продолжительность : 1 ч. 31 м.
Битрейт : 997 Кбит/сек
Ширина : 624 пикселя
Высота : 336 пикселей
Соотношение сторон : 1,85:1
Частота кадров : 23,976 кадра/сек
Цветовое пространство : YUV
Субдискретизация насыщенности : 4:2:0
Битовая глубина : 8 бит
Тип развёртки : Прогрессивная
Метод сжатия : С потерями
Бит/(Пиксели*Кадры) : 0.198
Размер потока : 655 Мбайт (88%)
Библиотека кодирования : XviD 73

Аудио
Идентификатор : 1
Формат : MPEG Audio
Версия формата : Version 1
Профиль формата : Layer 3
Режим : Joint stereo
Расширение режима : MS Stereo
Идентификатор кодека : 55
Идентификатор кодека/Подсказка : MP3
Продолжительность : 1 ч. 31 м.
Вид битрейта : Постоянный
Битрейт : 128 Кбит/сек
Каналы : 2 канала
Частота : 48,0 КГц
Метод сжатия : С потерями
Размер потока : 84,1 Мбайт (11%)
Выравнивание : Соединение по промежуткам
Продолжительность промежутка : 42 мс. (1,00 видеокадр)
Время предзагрузки промежутка : 504 мс.
Библиотека кодирования : LAME3.99r
Настройки программы : -m j -V 4 -q 2 -lowpass 17 -b 128

Релиз группа:
Просмотров:470
Размер:744.84 МБ (781,023,232 байт) » файлов: 1 [ список файлов ] [ хеш ]
Скачали:34 раз(а) [ список скачавших ]
Участники:? раздают, 0 качают (? участников всего)
Похожие торренты:не найдены...
Рапорт:[ пожаловаться на контент ]
Благодарность: 9 [ список ]
Чтобы оставить комментарий, войдите в систему или зарегистрируйтесь!
    
Файлы обмена предоставлены пользователями трекера, администрация не несет ответственность за их содержание. Большая просьба не заливать файлы, защищенными авторскими правами, а так же файлы с нелегальным содержанием.
Рейтинг торрент трекеров