Мар
21

Хочу замуж (2013) HDTVRip

Загружено: 21 марта 2015 в 13:19 от shkiper
  • 80
Техническая информация
Видео: 624x352, 1021 kbps, XviD, AVI, HDTVRip
Аудио: 128 kbps, MP3
Перевод: Не требуется
Субтитры: Отсутствуют
Звуковая дорожка: Русская
Продолжительность: 01:29:52
Рейтинг
 

Всего три недели есть у Вари, чтобы выйти замуж. Не просто выйти, а сначала найти, за кого. Почему же так мало времени? Из-за того, что так сошлись звезды. Именно так считает гадалка, к которой отправляется Варя по настоянию своей подруги Гали. Гадалка так подробно описывает будущего мужа Вари, что отыскать его теперь не должно составить труда. Только Галя почему-то недовольна описанием, которое дала гадалка. Может, потому, что Галя уже решила, кто должен стать избранником Вари?

Рип от:

MI
General
Complete name : D:\Рипы изготовление\Hochu.zamuzh.2013.HDTVRip.от Шкипер.avi
Format : AVI
Format/Info : Audio Video Interleave
File size : 745 MiB
Duration : 1h 29mn
Overall bit rate : 1 159 Kbps
Writing application : VirtualDubMod 1.5.10.3 | www.virtualdub-fr.org || (build 2550/release)
Writing library : VirtualDubMod build 2550/release

Video
ID : 0
Format : MPEG-4 Visual
Format profile : Advanced Simple@L5
Format settings, BVOP : 1
Format settings, QPel : No
Format settings, GMC : No warppoints
Format settings, Matrix : Default (MPEG)
Codec ID : XVID
Codec ID/Hint : XviD
Duration : 1h 29mn
Bit rate : 1 022 Kbps
Width : 624 pixels
Height : 352 pixels
Display aspect ratio : 16:9
Frame rate : 25.000 fps
Color space : YUV
Chroma subsampling : 4:2:0
Bit depth : 8 bits
Scan type : Progressive
Compression mode : Lossy
Bits/(Pixel*Frame) : 0.186
Stream size : 657 MiB (88%)
Writing library : XviD 73

Audio
ID : 1
Format : MPEG Audio
Format version : Version 1
Format profile : Layer 3
Mode : Joint stereo
Mode extension : MS Stereo
Codec ID : 55
Codec ID/Hint : MP3
Duration : 1h 29mn
Bit rate mode : Constant
Bit rate : 128 Kbps
Channel(s) : 2 channels
Sampling rate : 48.0 KHz
Compression mode : Lossy
Stream size : 82.3 MiB (11%)
Alignment : Aligned on interleaves
Interleave, duration : 40 ms (1.00 video frame)
Interleave, preload duratio : 504 ms
Writing library : LAME3.99r
Encoding settings : -m j -V 4 -q 2 -lowpass 17 -b 128


Релиз группа:
Просмотров:356
Размер:745.12 МБ (781,312,000 байт) » файлов: 1 [ список файлов ] [ хеш ]
Скачали:8 раз(а) [ список скачавших ]
Участники:3 раздают, 0 качают (3 участников всего)
Похожие торренты:не найдены...
Рапорт:[ пожаловаться на контент ]
Благодарность: 3 [ список ]
Чтобы оставить комментарий, войдите в систему или зарегистрируйтесь!
    
Файлы обмена предоставлены пользователями трекера, администрация не несет ответственность за их содержание. Большая просьба не заливать файлы, защищенными авторскими правами, а так же файлы с нелегальным содержанием.
Рейтинг торрент трекеров