Мар
06

Тени прошлого / Нарезчик / The Cutter (2005) DVDRip

Загружено: 06 марта 2015 в 06:51 от shkiper
  • 80
Техническая информация
Видео: 640x480, 1057 kbps, XviD, AVI, DVDRip
Аудио: 128 kbps, MP3
Перевод: Профессиональный (многоголосый)
Субтитры: Английские
Звуковая дорожка: Русская
Продолжительность: 01:27:10
Рейтинг
 

Джон (Чак Норрис) был хорошим полицейским. Но ему пришлось слишком много убивать. Прошло время, и теперь Джон - частный сыщик, специализирующийся на розыске людей. Дирк - наемник, за которым охотится Интерпол, ФБР, ЦРУ и Моссад. Он выполняет заказ - ищет древний артефакт Доспехи Аарона, инкрустированные двумя огромными брильянтами. Двум профессионалам придется помериться силами...

Субтитры: Английские на русскую речь - частично

Рип от:
"MI"
Общее
Полное имя : D:ТоррентМОИ РИПЫThe CutterНарезчик_ DVDrip by Шкипер.avi
Формат : AVI
Формат/Информация : Audio Video Interleave
Размер файла : 745 Мбайт
Продолжительность : 1 ч. 27 м.
Общий поток : 1195 Кбит/сек
Программа кодирования : VirtualDubMod 1.5.10.3 | www.virtualdub-fr.org || (build 2550/release)
Библиотека кодирования : VirtualDubMod build 2550/release

Видео
Идентификатор : 0
Формат : MPEG-4 Visual
Профиль формата : Advanced Simple@L5
Параметр BVOP формата : 1
Параметр QPel формата : Нет
Параметр GMC формата : Без точки перехода
Параметр матрицы формата : Default (MPEG)
Идентификатор кодека : XVID
Идентификатор кодека/Подсказка : XviD
Продолжительность : 1 ч. 27 м.
Битрейт : 1058 Кбит/сек
Ширина : 640 пикселей
Высота : 480 пикселей
Соотношение сторон : 4:3
Частота кадров : 25,000 кадров/сек
Цветовое пространство : YUV
Субдискретизация насыщенности : 4:2:0
Битовая глубина : 8 бит
Тип развёртки : Прогрессивная
Метод сжатия : С потерями
Бит/(Пиксели*Кадры) : 0.138
Размер потока : 659 Мбайт (88%)
Библиотека кодирования : XviD 73

Аудио
Идентификатор : 1
Формат : MPEG Audio
Версия формата : Version 1
Профиль формата : Layer 3
Режим : Joint stereo
Расширение режима : MS Stereo
Идентификатор кодека : 55
Идентификатор кодека/Подсказка : MP3
Продолжительность : 1 ч. 27 м.
Вид битрейта : Постоянный
Битрейт : 128 Кбит/сек
Каналы : 2 канала
Частота : 48,0 КГц
Метод сжатия : С потерями
Размер потока : 79,8 Мбайт (11%)
Выравнивание : Соединение по промежуткам
Продолжительность промежутка : 40 мс. (1,00 видеокадр)
Время предзагрузки промежутка : 504 мс.
Библиотека кодирования : LAME3.99r
Настройки программы : -m j -V 4 -q 2 -lowpass 17 -b 128

Релиз группа:
Просмотров:411
Размер:745.19 МБ (781,389,824 байт) » файлов: 1 [ список файлов ] [ хеш ]
Скачали:21 раз(а) [ список скачавших ]
Участники:? раздают, 0 качают (? участников всего)
Похожие торренты:не найдены...
Рапорт:[ пожаловаться на контент ]
Благодарность: 5 [ список ]
Чтобы оставить комментарий, войдите в систему или зарегистрируйтесь!
    
  • shkiper
  • 06 марта 2015 в 08:09
  • Модератор 
  • --
    • Рейтинг: 2
    • Комментариев: 31
    • Загрузили: 818.32 ГБ
    • Скачали: 339.51 ГБ
    Доп.скрины

    --------------------

    • rant
    • 06 марта 2015 в 07:02
    • Новичок 
    • --
      • Рейтинг: ---
      • Комментариев: 325
      • Загрузили: 0.00 КБ
      • Скачали: 0.00 КБ

      --------------------

      Файлы обмена предоставлены пользователями трекера, администрация не несет ответственность за их содержание. Большая просьба не заливать файлы, защищенными авторскими правами, а так же файлы с нелегальным содержанием.
      Рейтинг торрент трекеров