Мар
03

Исход: Цари и боги / Exodus: Gods and Kings (2014) WEB-DL | 720p

Загружено: 03 марта 2015 в 21:59 от Jokerra
  • 80
Техническая информация
Видео: 1280x532, 3777 kbps, AVC, MKV, WEB-DL
Аудио: 384 kbps, AAC
Перевод: Профессиональный (дублирование)
Субтитры: Отсутствуют
Звуковая дорожка: Русская + Английская
Продолжительность: 02:30:49
Рейтинг
 

Ветхозаветная история о великом пророке Моисее и освобождении еврейского народа из египетского плена. Моисей появился на свет в те времена, когда фараон приказал убивать всех новорожденных мальчиков еврейского происхождения. Чтобы спасти его, мать положила малыша в корзину из тростника и отправила вниз по Нилу. Ребенка нашла дочь фараона, которая усыновила его и растила рядом с Рамсесом — будущим фараоном. Много лет спустя, став мужчиной, Моисей бежит из Египта, а затем возвращается туда по велению Господа, чтобы избавить свой народ от оков рабства…

Mi
Format : Matroska
Format version : Version 4 / Version 2
File size : 4.89 GiB
Duration : 2h 30mn
Overall bit rate : 4 637 Kbps
Encoded date : UTC 2015-03-03 19:28:40
Writing application : mkvmerge v6.5.0 ('Isn't she lovely')
built on Oct 20 2013 12:50:05
Writing library : libebml v1.3.0 + libmatroska v1.4.1

Video
ID : 1
Format : AVC
Format/Info : Advanced Video Codec
Format profile : Main@L3.1
Format settings, CABAC : No
Format settings, ReFrames : 2 frames
Codec ID : V_MPEG4/ISO/AVC
Duration : 2h 30mn
Bit rate : 3 777 Kbps
Width : 1 280 pixels
Height : 532 pixels
Display aspect ratio : 2.40:1
Frame rate : 23.976 fps
Color space : YUV
Chroma subsampling : 4:2:0
Bit depth : 8 bits
Scan type : Progressive
Bits/(Pixel*Frame) : 0.231
Stream size : 3.98 GiB (81%)
Language : English
Default : Yes
Forced : No
Color primaries : BT.709-5, BT.1361, IEC 61966-2-4, SMPTE RP177
Transfer characteristics : BT.709-5, BT.1361
Matrix coefficients : BT.709-5, BT.1361, IEC 61966-2-4 709,
SMPTE RP177

Audio #1
ID : 2
Format : AC-3
Format/Info : Audio Coding 3
Mode extension : CM (complete main)
Codec ID : A_AC3
Duration : 2h 30mn
Bit rate mode : Constant
Bit rate : 384 Kbps
Channel(s) : 6 channels
Channel positions : Front: L C R, Side: L R, LFE
Sampling rate : 48.0 KHz
Bit depth : 16 bits
Compression mode : Lossy
Stream size : 414 MiB (8%)
Language : Russian
Default : Yes
Forced : Yes

Audio #2
ID : 3
Format : AC-3
Format/Info : Audio Coding 3
Mode extension : CM (complete main)
Codec ID : A_AC3
Duration : 2h 30mn
Bit rate mode : Constant
Bit rate : 384 Kbps
Channel(s) : 6 channels
Channel positions : Front: L C R, Side: L R, LFE
Sampling rate : 48.0 KHz
Bit depth : 16 bits
Compression mode : Lossy
Stream size : 414 MiB (8%)
Language : English
Default : No
Forced : No

Menu
00:00:00.000 : en:Chapter 01
00:03:54.000 : en:Chapter 02
00:06:50.000 : en:Chapter 03
00:11:46.000 : en:Chapter 04
00:14:27.000 : en:Chapter 05
00:18:35.000 : en:Chapter 06
00:22:13.000 : en:Chapter 07
00:26:48.000 : en:Chapter 08
00:30:28.000 : en:Chapter 09
00:36:38.000 : en:Chapter 10
00:40:44.000 : en:Chapter 11
00:44:46.000 : en:Chapter 12
00:48:43.000 : en:Chapter 13
00:51:12.000 : en:Chapter 14
00:54:18.000 : en:Chapter 15
00:57:28.000 : en:Chapter 16
01:00:26.000 : en:Chapter 17
01:04:36.000 : en:Chapter 18
01:06:44.000 : en:Chapter 19
01:10:56.000 : en:Chapter 20
01:16:48.000 : en:Chapter 21
01:21:12.000 : en:Chapter 22
01:24:24.000 : en:Chapter 23
01:28:02.000 : en:Chapter 24
01:30:47.000 : en:Chapter 25
01:34:08.000 : en:Chapter 26
01:37:13.000 : en:Chapter 27
01:39:13.000 : en:Chapter 28
01:42:33.000 : en:Chapter 29
01:46:42.000 : en:Chapter 30
01:48:55.000 : en:Chapter 31
01:52:10.000 : en:Chapter 32
01:57:21.000 : en:Chapter 33
02:00:15.000 : en:Chapter 34
02:05:32.000 : en:Chapter 35
02:07:22.000 : en:Chapter 36
02:13:29.000 : en:Chapter 37
02:16:12.000 : en:Chapter 38
02:19:30.000 : en:Chapter 39
02:23:10.000 : en:Chapter 40
Дополнительная информация

Релиз группа:
Просмотров:621
Размер:4.89 ГБ (5,245,678,710 байт) » файлов: 1 [ список файлов ] [ хеш ]
Скачали:4705 раз(а) [ список скачавших ]
Участники:31 раздают, 2 качают (33 участников всего)
Похожие торренты:не найдены...
Рапорт:[ пожаловаться на контент ]
Благодарность: 4 [ список ]
Чтобы оставить комментарий, войдите в систему или зарегистрируйтесь!
    
Файлы обмена предоставлены пользователями трекера, администрация не несет ответственность за их содержание. Большая просьба не заливать файлы, защищенными авторскими правами, а так же файлы с нелегальным содержанием.
Рейтинг торрент трекеров