Июл
03

Место встречи изменить нельзя (1-5 из 5) (1979) DVDRip

Загружено: 03 июля 2015 в 21:13 от Orion
  • 80
Техническая информация
Видео: 700x572, 2600 kbps, AVC, MKV, DVDRip
Аудио: 384 kbps, AC3
Перевод: Не требуется
Субтитры: Отсутствуют
Звуковая дорожка: Русская
Продолжительность: 05:59
Рейтинг
 

Убийства, засады, погони, перестрелки — на фоне послевоенной Москвы. Сотрудники МУРа против таинственной и неуловимой банды «Черная кошка». Демобилизовавшийся офицер разведки Володя Шарапов начинает работать в отделе по борьбе с бандитизмом. Одно из первых дел, в расследовании которых он участвует, — убийство Ларисы Груздевой…
MI
General
Unique ID : 248138305150073591657170365072207700606 (0xBAADB30054C3F9AF999A836C0F16E27E)
Complete name : Место встречи изменить нельзя.1979.1 серия.mkv
Format : Matroska
Format version : Version 2
File size : 1.33 GiB
Duration : 1h 6mn
Overall bit rate : 2 843 Kbps
Encoded date : UTC 2012-04-17 19:04:31
Writing application : mkvmerge v5.5.0 ('Healer') built on Apr 6 2012 21:43:24
Writing library : libebml v1.2.3 + libmatroska v1.3.0
Video
ID : 1
Format : AVC
Format/Info : Advanced Video Codec
Format profile : High@L4.1
Format settings, CABAC : Yes
Format settings, ReFrames : 16 frames
Codec ID : V_MPEG4/ISO/AVC
Duration : 1h 6mn
Bit rate : 2 457 Kbps
Width : 700 pixels
Height : 572 pixels
Display aspect ratio : 4:3
Original display aspect ratio : 4:3
Frame rate : 25.000 fps
Color space : YUV
Chroma subsampling : 4:2:0
Bit depth : 8 bits
Scan type : Progressive
Bits/(Pixel*Frame) : 0.245
Stream size : 1.12 GiB (85%)
Title : Место встречи изменить нельзя.1979.1 серия
Writing library : x264 core 119 r2106 07efeb4
Encoding settings : cabac=1 / ref=16 / deblock=1:-2:-2 / analyse=0x3:0x133 / me=umh / subme=10 / psy=1 / psy_rd=1.05:0.20 / mixed_ref=1 / me_range=48 / chroma_me=1 / trellis=2 / 8x8dct=1 / cqm=0 / deadzone=21,11 / fast_pskip=0 / chroma_qp_offset=-3 / threads=6 / sliced_threads=0 / nr=0 / decimate=0 / interlaced=0 / bluray_compat=0 / constrained_intra=0 / bframes=12 / b_pyramid=2 / b_adapt=2 / b_bias=0 / direct=3 / weightb=1 / open_gop=0 / weightp=2 / keyint=250 / keyint_min=25 / scenecut=40 / intra_refresh=0 / rc_lookahead=60 / rc=2pass / mbtree=1 / bitrate=2457 / ratetol=1.0 / qcomp=0.60 / qpmin=0 / qpmax=69 / qpstep=4 / cplxblur=20.0 / qblur=0.5 / vbv_maxrate=50000 / vbv_bufsize=62500 / nal_hrd=none / ip_ratio=1.40 / aq=1:1.00
Language : Russian
Default : Yes
Forced : No
Color primaries : BT.470-6 System B, BT.470-6 System G, BT.601-6 625, BT.1358 625, BT.1700 625 PAL, BT.1700 625 SECAM
Transfer characteristics : BT.470-6 System B, BT.470-6 System G
Matrix coefficients : BT.470-6 System B, BT.470-6 System G, BT.601-6 625, BT.1358 625, BT.1700 625 PAL, BT.1700 625 SECAM, IEC 61966-2-4 601
Audio
ID : 2
Format : AC-3
Format/Info : Audio Coding 3
Mode extension : CM (complete main)
Codec ID : A_AC3
Duration : 1h 6mn
Bit rate mode : Constant
Bit rate : 384 Kbps
Channel(s) : 6 channels
Channel positions : Front: L C R, Side: L R, LFE
Sampling rate : 48.0 KHz
Bit depth : 16 bits
Compression mode : Lossy
Stream size : 183 MiB (14%)
Title : Оригинал AC-3; 16 bits 48 Khz; 6ch 384 Kbps CBR
Language : Russian
Default : Yes
Forced : No
Интересные факты

Релиз группа:
Просмотров:398
Размер:7.08 ГБ (7,599,350,127 байт) » файлов: 5 [ список файлов ] [ хеш ]
Скачали:428 раз(а) [ список скачавших ]
Участники:73 раздают, 19 качают (92 участников всего)
Похожие торренты:не найдены...
Рапорт:[ пожаловаться на контент ]
Благодарность: 5 [ список ]
Чтобы оставить комментарий, войдите в систему или зарегистрируйтесь!
    
Файлы обмена предоставлены пользователями трекера, администрация не несет ответственность за их содержание. Большая просьба не заливать файлы, защищенными авторскими правами, а так же файлы с нелегальным содержанием.
Рейтинг торрент трекеров