Дек
02

Ищу попутчика (2014) HDTVRip

Загружено: 02 декабря 2014 в 19:43 от shkiper
  • 80
Техническая информация
Видео: 624x352, 1031 kbps, XviD, AVI, HDTVRip
Аудио: 128 kbps, MP3
Перевод: Не требуется
Субтитры: Отсутствуют
Звуковая дорожка: Русская
Продолжительность: 01:29:06
Рейтинг
 

У Василисы Кулебяки из небольшого старинного русского городка в один день рушится всё – работа, мечты, личная жизнь… Соседка подсказывает ей проверенный способ пережить потрясение – отправиться в Петербург в период Белых ночей. Василиса через интернет находит попутчицу, чтобы вместе поделить расходы на проживание в мини-гостинице. В результате путаницы её соседка из Москвы оказывается… соседом. Да ещё с характером, который Василиса на дух не переносит. Но это только начало сюрпризов, которые ждут Василису в период Белых ночей…

Рип от:

MI
Общее
Полное имя : D:\Изготовка рипа\Ischu.poputchika.2014.HDTVRip.Шкипер.avi
Формат : AVI
Формат/Информация : Audio Video Interleave
Размер файла : 745 Мбайт
Продолжительность : 1 ч. 29 м.
Общий поток : 1170 Кбит/сек
Программа кодирования : VirtualDubMod 1.5.10.3 | www.virtualdub-fr.org || (build 2550/release)
Библиотека кодирования : VirtualDubMod build 2550/release
Видео
Идентификатор : 0
Формат : MPEG-4 Visual
Профиль формата : Advanced Simple@L5
Параметр BVOP формата : 1
Параметр QPel формата : Нет
Параметр GMC формата : Без точки перехода
Параметр матрицы формата : Default (MPEG)
Идентификатор кодека : XVID
Идентификатор кодека/Подсказка : XviD
Продолжительность : 1 ч. 29 м.
Битрейт : 1032 Кбит/сек
Ширина : 624 пикселя
Высота : 352 пикселя
Соотношение сторон : 16:9
Частота кадров : 25,000 кадров/сек
Цветовое пространство : YUV
Субдискретизация насыщенности : 4:2:0
Битовая глубина : 8 бит
Тип развёртки : Прогрессивная
Метод сжатия : С потерями
Бит/(Пиксели*Кадры) : 0.188
Размер потока : 658 Мбайт (88%)
Библиотека кодирования : XviD 73
Аудио
Идентификатор : 1
Формат : MPEG Audio
Версия формата : Version 1
Профиль формата : Layer 3
Режим : Joint stereo
Расширение режима : MS Stereo
Идентификатор кодека : 55
Идентификатор кодека/Подсказка : MP3
Продолжительность : 1 ч. 29 м.
Вид битрейта : Постоянный
Битрейт : 128 Кбит/сек
Каналы : 2 канала
Частота : 48,0 КГц
Метод сжатия : С потерями
Размер потока : 81,6 Мбайт (11%)
Выравнивание : Соединение по промежуткам
Продолжительность промежутка : 40 мс. (1,00 видеокадр)
Время предзагрузки промежутка : 504 мс.
Библиотека кодирования : LAME3.99r
Настройки программы : -m j -V 4 -q 2 -lowpass 17 -b 128

Релиз группа:
Просмотров:391
Размер:745.38 МБ (781,590,528 байт) » файлов: 1 [ список файлов ] [ хеш ]
Скачали:19 раз(а) [ список скачавших ]
Участники:9 раздают, 0 качают (9 участников всего)
Похожие торренты:не найдены...
Рапорт:[ пожаловаться на контент ]
Благодарность: 6 [ список ]
Чтобы оставить комментарий, войдите в систему или зарегистрируйтесь!
    
Файлы обмена предоставлены пользователями трекера, администрация не несет ответственность за их содержание. Большая просьба не заливать файлы, защищенными авторскими правами, а так же файлы с нелегальным содержанием.
Рейтинг торрент трекеров