Окт
31

Need for Speed: Жажда скорости / Need for Speed (2014) BDRip | 1080p | 3D

Загружено: 31 октября 2014 в 18:22 от valerik
  • 80
Техническая информация
Видео: 1920x800, 16000 kbps, MPEG4, AVI, BDRip
Аудио: 640 kbps, AC3
Перевод: Профессиональный (дублирование)
Субтитры: Русские + Английские
Звуковая дорожка: Русская + Английская
Продолжительность: 02:10
Рейтинг
 

История Тоби Маршалла, гениального автомеханика, чьей единственной отдушиной является участие в подпольных гонках. Чтобы сохранить семейную мастерскую, Тоби вынужден взять в партнеры богатого и заносчивого бывшего гонщика IndyCar Дино Брюстера. Когда дела Тоби наконец-то начинают идти в гору, Дино подставляет партнера, и Тоби обвиняют в преступлении, которого он не совершал. Спустя два года Тоби выходит из тюрьмы с мыслью о мести. Чтобы достичь своей цели, ему придется совершить невозможное и доказать, что даже в мире броских суперкаров самый невзрачный гонщик может финишировать первым.

Media Info:
General
Unique ID : 230069003239638145119901948725921305807 (0xAD15ADA28AEC63B3ADAC6510E443D4CF)
Complete name : A:3DЖажда скорости 3D 1080p 60fps.mkv
Format : Matroska
Format version : Version 4 / Version 2
File size : 15.8 GiB
Duration : 2h 10mn
Overall bit rate : 17.3 Mbps
Encoded date : UTC 2014-10-30 14:01:49
Writing application : mkvmerge v6.9.1 ('Blue Panther') 64bit built on Apr 18 2014 18:23:38
Writing library : libebml v1.3.0 + libmatroska v1.4.1

Video
ID : 1
Format : AVC
Format/Info : Advanced Video Codec
Format profile : High@L4.1
Format settings, CABAC : Yes
Format settings, ReFrames : 4 frames
Codec ID : V_MPEG4/ISO/AVC
Duration : 2h 10mn
Bit rate : 16.0 Mbps
Width : 1 920 pixels
Height : 800 pixels
Display aspect ratio : 2.40:1
Frame rate : 59.940 fps
Color space : YUV
Chroma subsampling : 4:2:0
Bit depth : 8 bits
Scan type : Progressive
Bits/(Pixel*Frame) : 0.174
Stream size : 14.3 GiB (91%)
Writing library : x264 core 130 r2273 b3065e6
Encoding settings : cabac=1 / ref=4 / deblock=1:-1:-1 / analyse=0x3:0 / me=umh / subme=9 / psy=1 / psy_rd=1.00:0.00 / mixed_ref=1 / me_range=44 / chroma_me=0 / trellis=2 / 8x8dct=1 / cqm=0 / deadzone=21,11 / fast_pskip=0 / chroma_qp_offset=-2 / threads=12 / lookahead_threads=1 / sliced_threads=0 / nr=0 / decimate=0 / interlaced=0 / bluray_compat=0 / constrained_intra=0 / bframes=5 / b_pyramid=2 / b_adapt=2 / b_bias=0 / direct=3 / weightb=1 / open_gop=0 / weightp=2 / keyint=250 / keyint_min=59 / scenecut=40 / intra_refresh=0 / rc_lookahead=60 / rc=2pass / mbtree=1 / bitrate=16000 / ratetol=1.0 / qcomp=0.80 / qpmin=0 / qpmax=69 / qpstep=4 / cplxblur=20.0 / qblur=0.5 / ip_ratio=1.40 / aq=1:0.80
Language : English
Default : Yes
Forced : No

Audio #1
ID : 2
Format : AC-3
Format/Info : Audio Coding 3
Mode extension : CM (complete main)
Codec ID : A_AC3
Duration : 2h 10mn
Bit rate mode : Constant
Bit rate : 640 Kbps
Channel(s) : 6 channels
Channel positions : Front: L C R, Side: L R, LFE
Sampling rate : 48.0 KHz
Bit depth : 16 bits
Compression mode : Lossy
Stream size : 599 MiB (4%)
Title : Дубляж
Language : Russian
Default : Yes
Forced : No

Audio #2
ID : 3
Format : AC-3
Format/Info : Audio Coding 3
Mode extension : CM (complete main)
Codec ID : A_AC3
Duration : 2h 10mn
Bit rate mode : Constant
Bit rate : 640 Kbps
Channel(s) : 6 channels
Channel positions : Front: L C R, Side: L R, LFE
Sampling rate : 48.0 KHz
Bit depth : 16 bits
Compression mode : Lossy
Stream size : 599 MiB (4%)
Title : Оригинал
Language : English
Default : No
Forced : No

Text #1
ID : 4
Format : UTF-8
Codec ID : S_TEXT/UTF8
Codec ID/Info : UTF-8 Plain Text
Title : Форсированные
Language : Russian
Default : Yes
Forced : No

Text #2
ID : 5
Format : UTF-8
Codec ID : S_TEXT/UTF8
Codec ID/Info : UTF-8 Plain Text
Title : Полные
Language : Russian
Default : No
Forced : No

Text #3
ID : 6
Format : UTF-8
Codec ID : S_TEXT/UTF8
Codec ID/Info : UTF-8 Plain Text
Title : Полные
Language : English
Default : No
Forced : No

Menu
00:00:00.000 : :1 - 0:00:00
00:03:54.734 : :2 - 0:03:54
00:07:49.760 : :3 - 0:07:49
00:14:28.033 : :4 - 0:14:28
00:20:43.533 : :5 - 0:20:43
00:26:18.159 : :6 - 0:26:18
00:28:45.974 : :7 - 0:28:45
00:37:46.472 : :8 - 0:37:46
00:42:07.608 : :9 - 0:42:07
00:50:33.613 : :10 - 0:50:33
00:56:00.482 : :11 - 0:56:00
01:05:09.864 : :12 - 1:05:09
01:12:09.324 : :13 - 1:12:09
01:18:21.029 : :14 - 1:18:21
01:25:07.143 : :15 - 1:25:07
01:32:55.653 : :16 - 1:32:55
01:36:38.083 : :17 - 1:36:38
01:39:49.441 : :18 - 1:39:49
01:49:47.872 : :19 - 1:49:47
01:55:41.684 : :20 - 1:55:41
02:02:22.752 : :21 - 2:02:22
02:10:53.053 : :22 - 2:10:53
3D:
Формат 3D: Anamorph SideBySide / Горизонтальная анаморфная стереопара Порядок ракурсов: левый ракурс первый Просмотр рекомендован на специализированнном оборудовании: 3D blu-ray плеер (ps3) + 3D телевизор + 3D очки или с комплектом NVIDIA® 3D Vision™, способным обеспечить работу с 3D на ПК.
Смотрим при помощи CyberLink PowerDVD 10 Ultra 3D или Arcsoft TotalMedia Theatre 5 или чем нибудь еще - на ваше усмотрение...
При использовании Arcsoft TotalMedia Theatre 3 установите плагин sim3D.
Дополнительная информация
Интересные факты

Релиз группа:
Просмотров:611
Размер:15.79 ГБ (16,955,793,261 байт) » файлов: 1 [ список файлов ] [ хеш ]
Скачали:182 раз(а) [ список скачавших ]
Участники:8 раздают, 3 качают (11 участников всего)
Похожие торренты:не найдены...
Рапорт:[ пожаловаться на контент ]
Благодарность: 9 [ список ]
Чтобы оставить комментарий, войдите в систему или зарегистрируйтесь!
    
Файлы обмена предоставлены пользователями трекера, администрация не несет ответственность за их содержание. Большая просьба не заливать файлы, защищенными авторскими правами, а так же файлы с нелегальным содержанием.
Рейтинг торрент трекеров