Фев
20

Беги / Run (2013) BDRip | 1080p | 3D

Загружено: 20 февраля 2014 в 17:57 от Неизвестно
  • 80
Техническая информация
Видео: 1920х1080, 14500 kbps, AVC, MKV, BDRip
Аудио: 448 kbps, AC3
Перевод: Профессиональный (дублирование)
Субтитры: Отсутствуют
Звуковая дорожка: Русская
Продолжительность: 01:30
Рейтинг
 

: В нью-йоркской школе появляется таинственный ученик по имени Дэниэл. Он виртуозно владеет паркуром и сразу находит себе друзей по интересам, с которыми он может «летать» над городом, пока тот спит. Среди новых друзей прекрасная Эмили, которая безоглядно влюбляется в новичка. Но откуда приехал Дэниэл? Кто он такой? Где он жил раньше? Ведь у него полно секретов, которые он не доверяет своим друзьям. Но тайны прошлого не дремлют и Дэниэлу придётся бороться не только за свою жизнь, но и за жизнь своих новых друзей.

Формат 3D
Half OverUnder / Вертикальная анаморфная стереопара
Порядок ракурсов: левый ракурс первый
MediaInfo
General
Unique ID : 170248008193832758486049447313172703331 (0x801492DDB19B74B6B7ED00DADE59A863)
Complete name : E:Run(2013)3D-halfOU(Ash61).mkv
Format : Matroska
Format version : Version 2
File size : 10.1 GiB
Duration : 1h 30mn
Overall bit rate : 15.9 Mbps
Movie name : Беги / Run (2013) 3D
Encoded date : UTC 2014-02-20 13:32:17
Writing application : mkvmerge v5.8.0 ('No Sleep / Pillow') built on Sep 2 2012 15:37:04
Writing library : libebml v1.2.3 + libmatroska v1.3.0

Video
ID : 1
Format : AVC
Format/Info : Advanced Video Codec
Format profile : High@L4.1
Format settings, CABAC : Yes
Format settings, ReFrames : 4 frames
Codec ID : V_MPEG4/ISO/AVC
Duration : 1h 30mn
Bit rate : 14.5 Mbps
Width : 1 920 pixels
Height : 1 080 pixels
Display aspect ratio : 16:9
Frame rate mode : Constant
Frame rate : 23.976 fps
Color space : YUV
Chroma subsampling : 4:2:0
Bit depth : 8 bits
Scan type : Progressive
Bits/(Pixel*Frame) : 0.292
Stream size : 9.19 GiB (91%)
Title : BDRip by Ash61
Writing library : x264 core 129 r2245 bc13772
Encoding settings : cabac=1 / ref=4 / deblock=1:-3:-3 / analyse=0x3:0x113 / me=umh / subme=10 / psy=1 / psy_rd=1.00:0.15 / mixed_ref=1 / me_range=32 / chroma_me=1 / trellis=2 / 8x8dct=1 / cqm=0 / deadzone=21,11 / fast_pskip=1 / chroma_qp_offset=-3 / threads=12 / lookahead_threads=2 / sliced_threads=0 / nr=0 / decimate=1 / interlaced=0 / bluray_compat=0 / constrained_intra=0 / bframes=10 / b_pyramid=2 / b_adapt=2 / b_bias=0 / direct=3 / weightb=1 / open_gop=0 / weightp=2 / keyint=250 / keyint_min=23 / scenecut=40 / intra_refresh=0 / rc_lookahead=60 / rc=crf / mbtree=1 / crf=17.5 / qcomp=0.70 / qpmin=0 / qpmax=69 / qpstep=4 / vbv_maxrate=40000 / vbv_bufsize=30000 / crf_max=0.0 / nal_hrd=none / frame-packing=4 / ip_ratio=1.40 / aq=1:0.70
Language : English
Default : Yes
Forced : No

Audio #1
ID : 2
Format : AC-3
Format/Info : Audio Coding 3
Mode extension : CM (complete main)
Format settings, Endianness : Big
Codec ID : A_AC3
Duration : 1h 30mn
Bit rate mode : Constant
Bit rate : 448 Kbps
Channel(s) : 6 channels
Channel positions : Front: L C R, Side: L R, LFE
Sampling rate : 48.0 KHz
Bit depth : 16 bits
Compression mode : Lossy
Stream size : 290 MiB (3%)
Title : Дубляж
Language : Russian
Default : Yes
Forced : No

Audio #2
ID : 3
Format : AC-3
Format/Info : Audio Coding 3
Mode extension : CM (complete main)
Format settings, Endianness : Big
Codec ID : A_AC3
Duration : 1h 30mn
Bit rate mode : Constant
Bit rate : 640 Kbps
Channel(s) : 6 channels
Channel positions : Front: L C R, Side: L R, LFE
Sampling rate : 48.0 KHz
Bit depth : 16 bits
Compression mode : Lossy
Stream size : 415 MiB (4%)
Title : Original - BD 3D
Language : English
Default : No
Forced : No

Menu
00:00:00.000 : :1
00:07:03.298 : :2
00:14:31.871 : :3
00:21:27.369 : :4
00:28:49.269 : :5
00:34:47.210 : :6
00:44:07.478 : :7
00:52:44.870 : :8
00:58:47.107 : :9
01:06:05.211 : :10
01:19:46.156 : :11
01:21:20.501 : :12

Просмотров:704
Размер:10.08 ГБ (10,823,378,836 байт) » файлов: 1 [ список файлов ] [ хеш ]
Скачали:34 раз(а) [ список скачавших ]
Участники:? раздают, 0 качают (? участников всего)
Похожие торренты:не найдены...
Рапорт:[ пожаловаться на контент ]
Благодарность: 9 [ список ]
Чтобы оставить комментарий, войдите в систему или зарегистрируйтесь!
    
Файлы обмена предоставлены пользователями трекера, администрация не несет ответственность за их содержание. Большая просьба не заливать файлы, защищенными авторскими правами, а так же файлы с нелегальным содержанием.
Рейтинг торрент трекеров