Авг
29

Иллюзия обмана / Now You See Me (2013) BDRip | 1080p

Загружено: 29 августа 2013 в 21:53 от Natalie
  • 80
Техническая информация
Видео: 1920x800, 12100 kbps, AVC, MKV, BDRip
Аудио: 384 kbps, AC3
Перевод: Профессиональный (дублирование)
Субтитры: Отсутствуют
Звуковая дорожка: Русская + Английская
Продолжительность: 01:55
Рейтинг
 

Команда лучших иллюзионистов мира проворачивает дерзкие ограбления прямо во время своих шоу, играя в кошки-мышки с агентами ФБР.
Дополнительная информация

Релиз группа:
Просмотров:956
Размер:11.29 ГБ (12,126,506,243 байт) » файлов: 1 [ список файлов ] [ хеш ]
Скачали:752 раз(а) [ список скачавших ]
Участники:25 раздают, 0 качают (25 участников всего)
Похожие торренты:не найдены...
Рапорт:[ пожаловаться на контент ]
Благодарность: 33 [ список ]
Чтобы оставить комментарий, войдите в систему или зарегистрируйтесь!
    
  • Natalie
  • 30 августа 2013 в 18:21
  • VIP 
  • тролль
    • Рейтинг: 683
    • Комментариев: 48
    • Загрузили: 12.82 ТБ
    • Скачали: 19.23 ГБ
    Проверила. Плееры Light Alloy, KMPlayer и Daum Potplayer открывают без проблем. По умолчанию воспроизводится русская дорога. Звук есть. При открытии с помощью Mediaplayer Classis по умолчанию воспроизводится английская дорога. Переключения на русский не происходит. Windows Media Player не проверяла, т.к. всем известно, что это за плеер. На телевизоре Samsung UE40ES6307 с флешки тоже идет со звуком, дороги переключаются.
    MI
    General
    Unique ID : 228633780625760795538530508687821967533 (0xAC0143B2606B5DACA69D7BBCC2EB10AD)
    Complete name : G:\Now.You.See.Me.D.2013.Theatrical.Cut.BDRip1080p.INTERCINEMA.mkv
    Format : Matroska
    Format version : Version 2
    File size : 11.3 GiB
    Duration : 1h 55mn
    Overall bit rate : 14.0 Mbps
    Encoded date : UTC 2013-08-29 20:00:14
    Writing application : mkvmerge v5.4.0 ('Piper') built on Mar 10 2012 13:34:39
    Writing library : libebml v1.2.3 + libmatroska v1.3.0

    Video
    ID : 1
    Format : AVC
    Format/Info : Advanced Video Codec
    Format profile : High@L4.1
    Format settings, CABAC : Yes
    Format settings, ReFrames : 4 frames
    Muxing mode : Header stripping
    Codec ID : V_MPEG4/ISO/AVC
    Duration : 1h 55mn
    Bit rate : 12.1 Mbps
    Width : 1 920 pixels
    Height : 800 pixels
    Display aspect ratio : 2.40:1
    Frame rate mode : Constant
    Frame rate : 23.976 fps
    Color space : YUV
    Chroma subsampling : 4:2:0
    Bit depth : 8 bits
    Scan type : Progressive
    Bits/(Pixel*Frame) : 0.329
    Stream size : 9.54 GiB (85%)
    Writing library : x264 core 133 r2334 a3ac64b
    Encoding settings : cabac=1 / ref=5 / deblock=1:-3:-3 / analyse=0x3:0x133 / me=umh / subme=11 / psy=1 / psy_rd=1.00:0.15 / mixed_ref=1 / me_range=32 / chroma_me=1 / trellis=2 / 8x8dct=1 / cqm=0 / deadzone=21,11 / fast_pskip=0 / chroma_qp_offset=-3 / threads=12 / lookahead_threads=2 / sliced_threads=0 / nr=0 / decimate=1 / interlaced=0 / bluray_compat=0 / constrained_intra=0 / bframes=7 / b_pyramid=1 / b_adapt=2 / b_bias=0 / direct=3 / weightb=1 / open_gop=0 / weightp=2 / keyint=240 / keyint_min=23 / scenecut=40 / intra_refresh=0 / rc_lookahead=40 / rc=2pass / mbtree=1 / bitrate=12124 / ratetol=1.0 / qcomp=0.60 / qpmin=0 / qpmax=69 / qpstep=4 / cplxblur=20.0 / qblur=0.5 / vbv_maxrate=62500 / vbv_bufsize=78125 / nal_hrd=none / ip_ratio=1.40 / aq=1:1.00
    Language : English
    Default : Yes
    Forced : No

    Audio #1
    ID : 2
    Format : AC-3
    Format/Info : Audio Coding 3
    Mode extension : CM (complete main)
    Format settings, Endianness : Big
    Muxing mode : Header stripping
    Codec ID : A_AC3
    Duration : 1h 55mn
    Bit rate mode : Constant
    Bit rate : 384 Kbps
    Channel(s) : 6 channels
    Channel positions : Front: L C R, Side: L R, LFE
    Sampling rate : 48.0 KHz
    Bit depth : 16 bits
    Compression mode : Lossy
    Stream size : 317 MiB (3%)
    Title : INTERCINEMA
    Language : Russian
    Default : No
    Forced : No

    Audio #2
    ID : 3
    Format : DTS
    Format/Info : Digital Theater Systems
    Mode : 16
    Format settings, Endianness : Big
    Muxing mode : Header stripping
    Codec ID : A_DTS
    Duration : 1h 55mn
    Bit rate mode : Constant
    Bit rate : 1 509 Kbps
    Channel(s) : 6 channels
    Channel positions : Front: L C R, Side: L R, LFE
    Sampling rate : 48.0 KHz
    Bit depth : 24 bits
    Compression mode : Lossy
    Stream size : 1.22 GiB (11%)
    Default : Yes
    Forced : No

    Сообщение отредактировано 30 августа 2013 в 19:25 пользователем Natalie

    • Natalie
    • 30 августа 2013 в 08:51
    • VIP 
    • тролль
      • Рейтинг: 683
      • Комментариев: 48
      • Загрузили: 12.82 ТБ
      • Скачали: 19.23 ГБ
      Odysseus, вечером дома проверю.
      • Odysseus
      • 30 августа 2013 в 08:36
      • VIP 
      • --
        • Рейтинг: 2
        • Комментариев: 2
        • Загрузили: 9.40 ТБ
        • Скачали: 6.00 ТБ
        Русская дорожка без звука...
        • Natalie
        • 30 августа 2013 в 08:26
        • VIP 
        • тролль
          • Рейтинг: 683
          • Комментариев: 48
          • Загрузили: 12.82 ТБ
          • Скачали: 19.23 ГБ
          halyav4ik, Лицензия/iTunes
          • Основной 
          • --
            • Рейтинг: 2
            • Комментариев: 2
            • Загрузили: 4.41 ТБ
            • Скачали: 2.57 ТБ
            А чё со звуком???
            Файлы обмена предоставлены пользователями трекера, администрация не несет ответственность за их содержание. Большая просьба не заливать файлы, защищенными авторскими правами, а так же файлы с нелегальным содержанием.
            Рейтинг торрент трекеров